Torrentów: 138608      Ranga: Gość               Stwórz konto Odzyskiwanie hasła


Kategorie
Filmy
 ⇒ DivX - XviD
 ⇒ RMVB
 ⇒ DVD-R
 ⇒ TV + Seriale
 ⇒ HDTV-HD
 ⇒ VCD - SVCD
 ⇒ x 264
 ⇒  3D
Gry
 ⇒ Gry PC
 ⇒ Gry Konsole
 ⇒ xbox360
Muzyka
 ⇒ Muzyka
 ⇒ Teledyski/Koncerty
Książki - Komiksy
 ⇒ E-Booki + Audio
 ⇒ Komiksy
Inne
 ⇒ XXX
 ⇒ Dla Dzieci
 ⇒ Sport
 ⇒ Pozostałe - Różne
 ⇒ Manga - Anime
 ⇒ GSM - PDA
Aplikacje
 ⇒ Windows
 ⇒ Linux + Macintosh



Detale torrenta

Gdzie jest Dory-Finding Dory 3D (2016)[BRRip 1080p x264 by alE13 AC3][Dubbing PL][Eng]
Kondycja:
Dodane: 29/10/2016
Rozmiar: 7.93 GB
Uploader: alE13

seed(ów): 5
leecher(ów): 13
Pobrane: 0





Ocena: N/A



http://www.filmweb.pl/film/Gdzie+jest+Dory-2016-660758
http://www.imdb.com/title/tt2277860/

Film w wersji 3D Half Over/Under.

reżyseria: Andrew Stanton
scenariusz: Andrew Stanton
gatunek: Animacja,Familijny,Komedia,Przygodowy
produkcja: USA
premiera: 08-06-2016
muzyka:         Thomas Newman
zdjęcia:        Jeremy Lasky
czas:           1h 37mn

opis:

The friendly but forgetful blue tang fish begins a search for her long-lost parents,
and everyone learns a few things about the real meaning of family along the way.

Nasycona pastelowymi kolorami, fotorealistyczna animacja to oczywiście trzydaniowy obiad dla oczu – wodny świat
jest na przemian urzekający i groźny, jak z bajki i jak z kina grozy. Graficy nie próżnują także na lądzie.
Świetnie wypada zwłaszcza trzymający w napięciu finałowy pościg samochodowy, w którym Dory i ośmiornica Hank popisują
się zdolnościami godnymi Dominika Torretto.



obsada:

Ellen DeGeneres, Albert Brooks, Ed O'Neill (voice)

dane techniczne:

Finding Dory 3D (2016)-alE13.mkv
Format                      : Matroska
Format version              : Version 4 / Version 2
File size                   : 7.86 GiB
Duration                    : 1h 37mn
Overall bit rate            : 11.6 Mbps
Movie name                  : Finding Dory 3D (2016)-alE13
Encoded date                : UTC 2016-10-29 10:37:06
Writing application         : mkvmerge v8.1.0 ('Psychedelic Postcard') 64bit
Writing library             : libebml v1.3.1 + libmatroska v1.4.2
Attachements                : cover.jpg
DURATION                    : 01:37:02.944000000
NUMBER_OF_FRAMES            : 181967
NUMBER_OF_BYTES             : 186334208
_STATISTICS_WRITING_APP     : mkvmerge v8.1.0 ('Psychedelic Postcard') 64bit
_STATISTICS_WRITING_DATE_UT : 2016-10-29 10:37:06
_STATISTICS_TAGS            : BPS DURATION NUMBER_OF_FRAMES NUMBER_OF_BYTES

Video
ID                          : 1
Format                      : AVC
Format/Info                 : Advanced Video Codec
Format profile              : High@L4.1
Format settings, CABAC      : Yes
Format settings, ReFrames   : 2 frames
Codec ID                    : V_MPEG4/ISO/AVC
Duration                    : 1h 37mn
Bit rate                    : 10.7 Mbps
Width                       : 1 920 pixels
Height                      : 1 080 pixels
Display aspect ratio        : 16:9
Frame rate mode             : Constant
Frame rate                  : 23.976 fps
Color space                 : YUV
Chroma subsampling          : 4:2:0
Bit depth                   : 8 bits
Scan type                   : Progressive
Bits/(Pixel*Frame)          : 0.215
Stream size                 : 7.09 GiB (90%)
Title                       : Finding Dory 3D (2016)-alE13
Writing library             : x264 core 142
Default                     : Yes
Forced                      : No
Color range                 : Limited
Color primaries             : BT.709
Transfer characteristics    : BT.709
Matrix coefficients         : BT.709

Audio #1
ID                          : 2
Format                      : AC-3
Format/Info                 : Audio Coding 3
Mode extension              : CM (complete main)
Format settings, Endianness : Big
Codec ID                    : A_AC3
Duration                    : 1h 37mn
Bit rate mode               : Constant
Bit rate                    : 640 Kbps
Channel(s)                  : 6 channels
Channel positions           : Front: L C R, Side: L R, LFE
Sampling rate               : 48.0 KHz
Compression mode            : Lossy
Stream size                 : 444 MiB (6%)
Title                       : Finding Dory 3D (2016)-alE13_AC3
Language                    : English
Default                     : No
Forced                      : No

Audio #2
ID                          : 3
Format                      : AC-3
Format/Info                 : Audio Coding 3
Mode extension              : CM (complete main)
Format settings, Endianness : Big
Codec ID                    : A_AC3
Duration                    : 1h 37mn
Bit rate mode               : Constant
Bit rate                    : 256 Kbps
Channel(s)                  : 2 channels
Channel positions           : Front: L R
Sampling rate               : 48.0 KHz
Compression mode            : Lossy
Delay relative to video     : 450ms
Stream size                 : 178 MiB (2%)
Title                       : Finding Dory 3D (2016)-alE13_AC3
Language                    : Polish
Default                     : Yes
Forced                      : No

Menu #1
00:00:00.000                : en:1 - 0:00:00
00:02:35.738                : en:2 - 0:02:36
00:06:50.243                : en:3 - 0:06:50
00:10:53.194                : en:4 - 0:10:53
00:13:33.187                : en:5 - 0:13:33
00:15:25.132                : en:6 - 0:15:25
00:17:03.313                : en:7 - 0:17:03
00:19:35.465                : en:8 - 0:19:35
00:21:35.292                : en:9 - 0:21:35
00:24:58.705                : en:10 - 0:24:59
00:27:08.543                : en:11 - 0:27:09
00:30:33.206                : en:12 - 0:30:33
00:35:00.264                : en:13 - 0:35:00
00:37:52.018                : en:14 - 0:37:52
00:40:17.998                : en:15 - 0:40:18
00:41:06.672                : en:16 - 0:41:07
00:42:30.422                : en:17 - 0:42:30
00:46:03.427                : en:18 - 0:46:03
00:48:41.710                : en:19 - 0:48:42
00:50:27.857                : en:20 - 0:50:28
00:55:06.678                : en:21 - 0:55:07
00:57:05.838                : en:22 - 0:57:06
01:00:41.345                : en:23 - 1:00:41
01:04:32.952                : en:24 - 1:04:33
01:10:36.814                : en:25 - 1:10:37
01:12:28.301                : en:26 - 1:12:28
01:14:09.861                : en:27 - 1:14:10
01:18:26.493                : en:28 - 1:18:26
01:26:49.328                : en:29 - 1:26:49
01:37:03.399                : en:30 - 1:37:03
Podobne torrenty
[DivX - XviD] Gdzie jest Dory / Finding Dory (2016) [HDTS.X264.ac3-B53] [Lektor PL IVO]
[Dla Dzieci] Gdzie jest Nemo ? - Finding Nemo *2003* [DVDRip.XviD] [Dubbing PL]
[Dla Dzieci] Gdzie jest Nemo? - Finding Nemo *2003* [DVDRip.XviD] [Dubbing PL]
[Dla Dzieci] Gdzie jest Nemo - Finding Nemo (2003) [BluRay] [Dubbing PL]
[ 3D] Doktor Strange-Doctor Strange (IMAX Edition) 3D (2016)-alE13[BDRip 1080p x264 by alE13 AC3][Dubbing i Napisy PL][Eng]
[ 3D] Sing 3D (2016)[BDRip 1080p x264 by alE13 AC3][Dubbing PL/Sub Eng][Eng]
[ 3D] Sawa. Mały wielki bohater-Savva. Heart of the Warrior 3D (2015)-alE13[BRRip 1080p x264 by alE13 AC3][Dubbing PL/Eng][Rus]
[HDTV-HD] Ben-Hur(2016)[BRRip 1080p x264 by alE13 AC3/DTS]Napisy PL/England][Eng]
[HDTV-HD] Daylight\'s End (2016)[BRRip 1080p x264 by alE13 AC3][Napisy PL][Eng]
[DivX - XviD] Gdzie jest pani Mikołajowa - Finding Mrs. Claus *2012* [HDTV.XviD] [Lektor PL]
Szczegóły torrenta
Trackerhttp://tracker.torrentyorg.pl/announce
Multitracker http://tracker.torrentyorg.pl/announce
http://mgtracker.org:2710/announce
http://pow7.com:80/announce
http://pow7.com/announce
udp://tracker.leechers-paradise.org:6969/announce
udp://tracker.coppersurfer.tk:6969/announce
udp://tracker.opentrackr.org:1337/announce
udp://tracker.coppersurfer.tk:6969/announce
udp://tracker.leechers-paradise.org:6969/announce
udp://eddie4.nl:6969/announce
udp://tracker.coppersurfer.tk:6969/announce
udp://p4p.arenabg.com:1337/announce
udp://p4p.arenabg.ch:1337/announce
udp://tracker.internetwarriors.net:1337/announce
udp://tracker.openbittorrent.com:80/announce
udp://tracker.piratepublic.com:1337/announce
udp://tracker.opentrackr.org:1337/announce
udp://explodie.org:6969/announce
udp://p4p.arenabg.ch:1337/announce
udp://inferno.demonoid.ooo:3392/announce
udp://inferno.demonoid.pw:3393/announce
udp://tracker.coppersurfer.tk:6969/announce
udp://zer0day.to:1337/announce
udp://tracker.ilibr.org:6969/announce
udp://tracker.leechers-paradise.org:6969/announce
udp://eddie4.nl:6969/announce
udp://tracker.ilibr.org:80/announce

Kategoria:Filmy » 3D
Dodane29/10/2016 19:10:42
Ostatnie Uaktualnienie30/10/2016 06:00:19
Pokaż/Ukryj pliki:
13 plików
NIKT JESZCZE NIE DODAŁ KOMENTARZA

DODAJ KOMENTARZ
Więcej Emoticon



Wstecz

Żaden z opisanych na stronie plików nie jest przetrzymywany na serwerze. Administrator strony immortaltorrent.pl nie może ponieść konsekwencji prawnych za to co użytkownicy zamieszczają lub piszą na stronie.
Nie możesz używać tego serwisu do rozpowszechniania lub ściągania materiałów do których nie masz odpowiednich praw lub licencji. Użytkownicy zobowiązani są do przestrzeganie tych zasad.
Rejestracja konta jest jednoznaczna z akceptacją zasad.

2017 © immortaltorrent.pl


Najlepsze strony Torrentowe