Torrentów: 138500      Ranga: Gość               Stwórz konto Odzyskiwanie hasła


Kategorie
Filmy
 ⇒ DivX - XviD
 ⇒ RMVB
 ⇒ DVD-R
 ⇒ TV + Seriale
 ⇒ HDTV-HD
 ⇒ VCD - SVCD
 ⇒ x 264
 ⇒  3D
Gry
 ⇒ Gry PC
 ⇒ Gry Konsole
 ⇒ xbox360
Muzyka
 ⇒ Muzyka
 ⇒ Teledyski/Koncerty
Książki - Komiksy
 ⇒ E-Booki + Audio
 ⇒ Komiksy
Inne
 ⇒ XXX
 ⇒ Dla Dzieci
 ⇒ Sport
 ⇒ Pozostałe - Różne
 ⇒ Manga - Anime
 ⇒ GSM - PDA
Aplikacje
 ⇒ Windows
 ⇒ Linux + Macintosh



Detale torrenta

Lekarstwo na życie-A Cure for Wellness (2016)[BRRip 1080p x264 by alE13 AC3/DTS][Lektor i Napisy PL/Multi][Eng]
Kondycja:
Dodane: 13/06/2017
Rozmiar: 13.53 GB
Uploader: alE13

seed(ów): 1
leecher(ów): 0
Pobrane: 0





Ocena: N/A



http://www.imdb.com/title/tt4731136/
http://www.filmweb.pl/film/Lekarstwo+na+%C5%BCycie-2016-739293

Audio DTS MA / ES Matrix / Core (8ch.) w osobnym pliku.
Plik zawiera sample.


reżyseria: Gore Verbinski
scenariusz: Justin Haythe
gatunek: Horror
produkcja: Niemcy,USA
premiera: 15-02-2017
muzyka:         Benjamin Wallfisch
zdjęcia:        Bojan Bazelli
czas:           2h 26min

opis:

An ambitious young executive is sent to retrieve his company's CEO from an idyllic but mysterious "wellness center" at
a remote location in the Swiss Alps, but soon suspects that the spa's treatments are not what they seem.

Młody mężczyzna przyjeżdża do ośrodka odnowy biologicznej, aby zabrać stamtąd swojego szefa. Nie wie, że miejsce skrywa
mroczny sekret.

subtitles:



http://i.imgur.com/1YGVwNG.jpg
http://i.imgur.com/vAaqeeZ.jpg
http://i.imgur.com/KXM8VRf.jpg
http://i.imgur.com/YNyUC6P.jpg

obsada:

Dane DeHaan, Jason Isaacs, Mia Goth

dane techniczne:

A Cure for Wellness (2016)-alE13.mkv
Format                      : Matroska
Format version              : Version 4 / Version 2
File size                   : 8.40 GiB
Duration                    : 2 h 26 min
Overall bit rate            : 8 202 kb/s
Movie name                  : A Cure for Wellness (2016)-alE13
Encoded date                : UTC 2017-06-13 03:35:30
Writing application         : mkvmerge v8.1.0 ('Psychedelic Postcard') 64bit
Writing library             : libebml v1.3.1 + libmatroska v1.4.2
Cover                       : Yes
Attachments                 : cover.jpg

Video
ID                          : 1
Format                      : AVC
Format/Info                 : Advanced Video Codec
Format profile              : High@L4.1
Format settings, CABAC      : Yes
Format settings, ReFrames   : 2 frames
Codec ID                    : V_MPEG4/ISO/AVC
Duration                    : 2 h 26 min
Bit rate                    : 7 060 kb/s
Width                       : 1 920 pixels
Height                      : 1 080 pixels
Display aspect ratio        : 16:9
Frame rate mode             : Constant
Frame rate                  : 23.976 (24000/1001) FPS
Color space                 : YUV
Chroma subsampling          : 4:2:0
Bit depth                   : 8 bits
Scan type                   : Progressive
Bits/(Pixel*Frame)          : 0.142
Stream size                 : 7.22 GiB (86%)
Title                       : A Cure for Wellness (2016)-alE13
Writing library             : x264 core 142
Default                     : Yes
Forced                      : No
Color range                 : Limited
Color primaries             : BT.709
Transfer characteristics    : BT.709
Matrix coefficients         : BT.709

Audio #1
ID                          : 2
Format                      : AC-3
Format/Info                 : Audio Coding 3
Mode extension              : CM (complete main)
Format settings, Endianness : Big
Codec ID                    : A_AC3
Duration                    : 2 h 26 min
Bit rate mode               : Constant
Bit rate                    : 640 kb/s
Channel(s)                  : 6 channels
Channel positions           : Front: L C R, Side: L R, LFE
Sampling rate               : 48.0 kHz
Frame rate                  : 31.250 FPS (1536 spf)
Compression mode            : Lossy
Stream size                 : 671 MiB (8%)
Title                       : A Cure for Wellness (2016)-alE13_AC3
Language                    : Polish
Default                     : Yes
Forced                      : No

Audio #2
ID                          : 3
Format                      : AC-3
Format/Info                 : Audio Coding 3
Mode extension              : CM (complete main)
Format settings, Endianness : Big
Codec ID                    : A_AC3
Duration                    : 2 h 26 min
Bit rate mode               : Constant
Bit rate                    : 448 kb/s
Channel(s)                  : 6 channels
Channel positions           : Front: L C R, Side: L R, LFE
Sampling rate               : 48.0 kHz
Frame rate                  : 31.250 FPS (1536 spf)
Compression mode            : Lossy
Stream size                 : 470 MiB (5%)
Title                       : A Cure for Wellness (2016)-alE13_AC3
Language                    : English
Default                     : No
Forced                      : No
==============================================================
Audio
ID                          : 1
Format                      : DTS
Format/Info                 : Digital Theater Systems
Format profile              : MA / ES Matrix / Core
Mode                        : 16
Format settings, Endianness : Big
Codec ID                    : A_DTS
Duration                    : 2 h 26 min
Bit rate mode               : Variable / Constant / Constant
Bit rate                    : 4 929 kb/s / 1 509 kb/s / 1 509 kb/s
Channel(s)                  : 8 channels / 7 channels / 6 channels
Channel positions           : Front: L C R, Side: L R, Back: L R, LFE / Front: L C R, Side: L R, Back: C, LFE / Front: L C R, Side: L R, LFE
Sampling rate               : 48.0 kHz
Frame rate                  : 93.750 FPS (512 spf)
Bit depth                   : 24 bits
Compression mode            : Lossless / Lossy / Lossy
Stream size                 : 5.05 GiB (100%)
Title                       : A Cure for Wellness (2016)-alE13_DTS_MA/ES Matrix/Core
Language                    : English
Default                     : No
Forced                      : No

Podobne torrenty
[x 264] Lekarstwo na życie / A Cure for Wellness (2016) [720p] [BluRay] [x264] [ MULTI-LTN] [Lektor PL]
[ 3D] Kredo Zabójcy-Assassin\'s Creed 3D (2016)[BR 1080p x264 by alE13 AC3/DTS][Lektor i napisy PL/Eng/Multi Sub][Eng]
[ 3D] Życie Oceanów-Deep Sea 3D (2006)[BRRip 1080p x264 by alE13 AC3][Lektor i Napisy PL/Eng][Eng]
[HDTV-HD] Quo Vadis (1951)[BRRip 1080p x264 by alE13 AC3][Lektor i Napisy PL/Eng/Multi][Eng]
[ 3D] Pasażerowie-Passengers 3D (2016)[BDRip 1080p x264 by alE13 AC3/DTS][Napisy PL/Eng/Multi Sub][Eng]
[HDTV-HD] Bez przebaczenia-Unforgiven (1992)[REMASTERED][BRRip 1080p x264 by alE13 AC3/DTS][Lektor i Napisy PL/Eng/Multi][Eng]
[HDTV-HD] Bałkańska Vendetta-Kill\'em All (2017)[BRRip 1080p x264 by alE13 AC3/DTS][Lektor i Napisy PL & Multi][Eng]
[HDTV-HD] Irlandzki Szlak-Route Irish (2010)[BRRip 1080p x264 by alE13 DTS/AC3][Lektor i Napisy PL/Multi Sub][Eng]
[HDTV-HD] Geniusze zbrodni/Dog Eat Dog (2016)[BRRip 1080p x264 by alE13 AC3/DTS][Lektor i napisy PL/Eng][Eng]
[HDTV-HD] Król Artur-King Arthur (2004)[BRRip 1080p x264 by alE13 PCM/AC3][Lektor i Napisy PL/Multi Subs][Eng]
Szczegóły torrenta
Trackerhttp://tracker.devil-torrents.pl/announce
Multitracker http://tracker.devil-torrents.pl/announce
http://tracker.torrentyorg.pl/announce
udp://tracker.opentrackr.org:1337/announce
udp://tracker.leechers-paradise.org:6969/announce
udp://tracker.ilibr.org:80/announce
udp://tracker.coppersurfer.tk:6969/announce
udp://p4p.arenabg.ch:1337/announce
udp://inferno.demonoid.pw:3391/announce

Kategoria:Filmy » HDTV-HD
Dodane13/06/2017 06:06:08
Ostatnie Uaktualnienie13/06/2017 06:15:09
Pokaż/Ukryj pliki:
17 plików
NIKT JESZCZE NIE DODAŁ KOMENTARZA

DODAJ KOMENTARZ
Więcej Emoticon



Wstecz

Żaden z opisanych na stronie plików nie jest przetrzymywany na serwerze. Administrator strony immortaltorrent.pl nie może ponieść konsekwencji prawnych za to co użytkownicy zamieszczają lub piszą na stronie.
Nie możesz używać tego serwisu do rozpowszechniania lub ściągania materiałów do których nie masz odpowiednich praw lub licencji. Użytkownicy zobowiązani są do przestrzeganie tych zasad.
Rejestracja konta jest jednoznaczna z akceptacją zasad.

2017 © immortaltorrent.pl


Najlepsze strony Torrentowe