Torrentów: 144768      Ranga: Gosc               Stwórz konto Odzyskiwanie hasła


Kategorie
Filmy
 ⇒ DivX - XviD
 ⇒ RMVB
 ⇒ DVD-R
 ⇒ TV + Seriale
 ⇒ HDTV-HD
 ⇒ VCD - SVCD
 ⇒ x 264
 ⇒  3D
Gry
 ⇒ Gry PC
 ⇒ Gry Konsole
 ⇒ xbox360
Muzyka
 ⇒ Muzyka
 ⇒ Teledyski/Koncerty
Książki - Komiksy
 ⇒ E-Booki + Audio
 ⇒ Komiksy
Inne
 ⇒ XXX
 ⇒ Dla Dzieci
 ⇒ Sport
 ⇒ Pozostałe - Różne
 ⇒ Manga - Anime
 ⇒ GSM - PDA
Aplikacje
 ⇒ Windows
 ⇒ Linux + Macintosh



Detale torrenta

Linkin Park - Not Alone
Kondycja:
Dodane: 03/05/2010
Rozmiar: 92.95 MB
Uploader: Anonimowy
seed(ów): 0
leecher(ów): 0
Pobrane: 424





Ocena:

Album:  Linkin Park - Not Alone
Genre: Alternative rock, nu metal, rap metal
Video Released: 2010
Country: Agoura Hills, California, United States
Source: HDTV
Format: MOV (H264)
Video: MPEG-4 AAC LC, 16:9, (1280x720), VBR 2844kbps
Audio: 128 kbps, 2 channels, VBR
Duration: 00:04:22 h.

General
Complete name                    : D:Last DesktopAlbumsLinkin Park - Not Alone [720p]Linkin Park - Not Alone [720p].mov
Format                           : MPEG-4
Format profile                   : QuickTime
Codec ID                         : qt  
File size                        : 92.9 MiB
Duration                         : 4mn 22s
Overall bit rate                 : 2 972 Kbps
Encoded date                     : UTC 2010-02-18 23:00:16
Tagged date                      : UTC 2010-02-18 23:31:31
Writing library                  : Apple QuickTime

Video
ID                               : 2
Format                           : AVC
Format/Info                      : Advanced Video Codec
Format profile                   : Main@L3.1
Format settings, CABAC           : No
Format settings, ReFrames        : 2 frames
Codec ID                         : avc1
Codec ID/Info                    : Advanced Video Coding
Duration                         : 4mn 22s
Bit rate mode                    : Variable
Bit rate                         : 2 847 Kbps
Width                            : 1 280 pixels
Height                           : 720 pixels
Display aspect ratio             : 16:9
Frame rate mode                  : Variable
Frame rate                       : 29.970 fps
Minimum frame rate               : 28.571 fps
Maximum frame rate               : 31.579 fps
Resolution                       : 8 bits
Colorimetry                      : 4:2:0
Scan type                        : Progressive
Bits/(Pixel*Frame)               : 0.103
Stream size                      : 89.0 MiB (96%)
Language                         : English
Encoded date                     : UTC 2010-02-18 23:31:19
Tagged date                      : UTC 2010-02-18 23:31:31
Color primaries                  : BT.709-5, BT.1361, IEC 61966-2-4, SMPTE RP177
Transfer characteristics         : BT.709-5, BT.1361
Matrix coefficients              : BT.709-5, BT.1361, IEC 61966-2-4 709, SMPTE RP177

Audio
ID                               : 1
Format                           : AAC
Format/Info                      : Advanced Audio Codec
Format version                   : Version 4
Format profile                   : LC
Format settings, SBR             : No
Codec ID                         : 40
Duration                         : 4mn 22s
Bit rate mode                    : Constant
Bit rate                         : 121 Kbps
Nominal bit rate                 : 128 Kbps
Channel(s)                       : 2 channels
Channel positions                : L R
Sampling rate                    : 48.0 KHz
Stream size                      : 3.78 MiB (4%)
Language                         : English
Encoded date                     : UTC 2010-02-18 23:31:19
Tagged date                      : UTC 2010-02-18 23:31:31

Podobne torrenty
[Teledyski/Koncerty] Linkin Park - What I've Done
[Teledyski/Koncerty] Linkin Park - In The End
[Teledyski/Koncerty] Linkin Park - What I've Done
[Teledyski/Koncerty] Linkin Park - What Ive Done
[Muzyka] Linkin Park
[Teledyski/Koncerty] Linkin Park - What I've Done
[Teledyski/Koncerty] Linkin Park - Given Up
[Muzyka] Linkin Park - The Catalyst [Mp3]
[Teledyski/Koncerty] Linkin Park - New Divide
[Teledyski/Koncerty] Linkin Park - Numb
Szczegóły torrenta
Trackerhttp://p2p.arenabg.com:2710/a5588e02ad65ce007ccfaea5eb6a76d3/announce
Kategoria:Muzyka » Teledyski/Koncerty
Dodane03/05/2010 08:05:01
Ostatnie Uaktualnienie08/09/2013 13:27:01
NIKT JESZCZE NIE DODAŁ KOMENTARZA

DODAJ KOMENTARZ
Więcej Emoticon



Wstecz

Żaden z opisanych na stronie plików nie jest przetrzymywany na serwerze. Administrator strony immortaltorrent.pl nie może ponieść konsekwencji prawnych za to co użytkownicy zamieszczają lub piszą na stronie.
Nie możesz używać tego serwisu do rozpowszechniania lub ściągania materiałów do których nie masz odpowiednich praw lub licencji. Użytkownicy zobowiązani są do przestrzeganie tych zasad.
Rejestracja konta jest jednoznaczna z akceptacją zasad.

2018 © immortaltorrent.pl


Najlepsze strony Torrentowe