Torrentów: 136538      Ranga: Go¶ć               Stwórz konto Odzyskiwanie hasła


Kategorie
Filmy
 ⇒ DivX - XviD
 ⇒ RMVB
 ⇒ DVD-R
 ⇒ TV + Seriale
 ⇒ HDTV-HD
 ⇒ VCD - SVCD
 ⇒ x 264
 ⇒  3D
Gry
 ⇒ Gry PC
 ⇒ Gry Konsole
 ⇒ xbox360
Muzyka
 ⇒ Muzyka
 ⇒ Teledyski/Koncerty
Ksi±żki - Komiksy
 ⇒ E-Booki + Audio
 ⇒ Komiksy
Inne
 ⇒ XXX
 ⇒ Dla Dzieci
 ⇒ Sport
 ⇒ Pozostałe - Różne
 ⇒ Manga - Anime
 ⇒ GSM - PDA
Aplikacje
 ⇒ Windows
 ⇒ Linux + Macintosh



Detale torrenta

Amerykański wilkołak w Londynie-An American Werewolf in London (1981)[BRRip 1080p x264 by alE13 AC3/DTS][Lektor i Napisy PL/Eng][Eng]
Kondycja:
Dodane: 28/06/2017
Rozmiar: 7.97 GB
Uploader: alE13

seed(ów): 1
leecher(ów): 0
Pobrane: 0





Ocena: N/A



http://www.imdb.com/title/tt0082010/
http://www.filmweb.pl/film/Ameryka%C5%84ski+wilko%C5%82ak+w+Londynie-1981-3831

Plik zawiera Sample.

reżyseria: John Landis
scenariusz: John Landis
gatunek: Horror
produkcja: USA,Wielka Brytania
premiera: 21-08-1981
muzyka:         Elmer Bernstein
zdjęcia:        Robert Paynter
czas:

opis:

Two American college students on a walking tour of Britain are attacked by a werewolf that none of the
locals will admit exists.

Dwóch amerykańskich studentów zostaje zaatakowanych przez wilkołaka w trakcie wycieczki po Anglii. Jeden
z nich ulega infekcji.

http://i.imgur.com/wNU3SXl.jpg
http://i.imgur.com/9YZq6Sx.jpg
http://i.imgur.com/a4ICP0i.jpg
http://i.imgur.com/zPTbfet.jpg






obsada:

David Naughton, Jenny Agutter, Joe Belcher

dane techniczne:

An American Werewolf in London (1981)-alE13.mkv
Format                      : Matroska
Format version              : Version 4 / Version 2
File size                   : 7.92 GiB
Duration                    : 1 h 37 min
Overall bit rate            : 11.6 Mb/s
Movie name                  : An American Werewolf in London (1981)-alE13
Encoded date                : UTC 2017-06-28 05:53:59
Writing application         : mkvmerge v8.1.0 ('Psychedelic Postcard') 64bit
Writing library             : libebml v1.3.1 + libmatroska v1.4.2
Cover                       : Yes
Attachments                 : Cover.jpg

Video
ID                          : 1
Format                      : AVC
Format/Info                 : Advanced Video Codec
Format profile              : High@L4.1
Format settings, CABAC      : Yes
Format settings, ReFrames   : 2 frames
Codec ID                    : V_MPEG4/ISO/AVC
Duration                    : 1 h 37 min
Bit rate                    : 9 432 kb/s
Width                       : 1 920 pixels
Height                      : 1 040 pixels
Display aspect ratio        : 1.85:1
Frame rate mode             : Constant
Frame rate                  : 23.976 (24000/1001) FPS
Color space                 : YUV
Chroma subsampling          : 4:2:0
Bit depth                   : 8 bits
Scan type                   : Progressive
Bits/(Pixel*Frame)          : 0.197
Stream size                 : 6.41 GiB (81%)
Title                       : An American Werewolf in London (1981)-alE13
Writing library             : x264 core 142
Default                     : Yes
Forced                      : No
Color range                 : Limited
Color primaries             : BT.709
Transfer characteristics    : BT.709
Matrix coefficients         : BT.709

Audio #1
ID                          : 2
Format                      : AC-3
Format/Info                 : Audio Coding 3
Mode extension              : CM (complete main)
Format settings, Endianness : Big
Codec ID                    : A_AC3
Duration                    : 1 h 37 min
Bit rate mode               : Constant
Bit rate                    : 448 kb/s
Channel(s)                  : 6 channels
Channel positions           : Front: L C R, Side: L R, LFE
Sampling rate               : 48.0 kHz
Frame rate                  : 31.250 FPS (1536 spf)
Compression mode            : Lossy
Stream size                 : 312 MiB (4%)
Title                       : An American Werewolf in London (1981)-alE13_AC3
Language                    : English
Default                     : No
Forced                      : No

Audio #2
ID                          : 3
Format                      : AC-3
Format/Info                 : Audio Coding 3
Mode extension              : CM (complete main)
Format settings, Endianness : Big
Codec ID                    : A_AC3
Duration                    : 1 h 37 min
Bit rate mode               : Constant
Bit rate                    : 256 kb/s
Channel(s)                  : 2 channels
Channel positions           : Front: L R
Sampling rate               : 44.1 kHz
Frame rate                  : 28.711 FPS (1536 spf)
Compression mode            : Lossy
Delay relative to video     : 24 ms
Stream size                 : 178 MiB (2%)
Title                       : An American Werewolf in London (1981)-alE13_AC3
Language                    : Polish
Default                     : Yes
Forced                      : No

Audio #3
ID                          : 6
Format                      : DTS
Format/Info                 : Digital Theater Systems
Mode                        : 16
Format settings, Endianness : Big
Codec ID                    : A_DTS
Duration                    : 1 h 37 min
Bit rate mode               : Constant
Bit rate                    : 1 509 kb/s
Channel(s)                  : 6 channels
Channel positions           : Front: L C R, Side: L R, LFE
Sampling rate               : 48.0 kHz
Frame rate                  : 93.750 FPS (512 spf)
Bit depth                   : 24 bits
Compression mode            : Lossy
Stream size                 : 1.03 GiB (13%)
Title                       : An American Werewolf in London (1981)-alE13_DTS
Language                    : English
Default                     : No
Forced                      : No

Text #1
ID                          : 4
Format                      : UTF-8
Codec ID                    : S_TEXT/UTF8
Codec ID/Info               : UTF-8 Plain Text
Duration                    : 1 h 32 min
Bit rate                    : 50 b/s
Count of elements           : 973
Stream size                 : 34.5 KiB (0%)
Title                       : An American Werewolf in London (1981)-alE13
Language                    : Polish
Default                     : No
Forced                      : No

Text #2
ID                          : 5
Format                      : UTF-8
Codec ID                    : S_TEXT/UTF8
Codec ID/Info               : UTF-8 Plain Text
Duration                    : 1 h 36 min
Bit rate                    : 54 b/s
Count of elements           : 1147
Stream size                 : 38.8 KiB (0%)
Title                       : An American Werewolf in London (1981)-alE13_AC3
Language                    : English
Default                     : No
Forced                      : No

Text #3
ID                          : 7
Format                      : UTF-8
Codec ID                    : S_TEXT/UTF8
Codec ID/Info               : UTF-8 Plain Text
Duration                    : 1 h 36 min
Bit rate                    : 54 b/s
Count of elements           : 1147
Stream size                 : 38.8 KiB (0%)
Title                       : An American Werewolf in London (1981)-alE13
Language                    : English
Default                     : No
Forced                      : No

Text #4
ID                          : 8
Format                      : UTF-8
Codec ID                    : S_TEXT/UTF8
Codec ID/Info               : UTF-8 Plain Text
Duration                    : 1 h 36 min
Bit rate                    : 57 b/s
Count of elements           : 1292
Stream size                 : 40.9 KiB (0%)
Title                       : An American Werewolf in London (1981)-alE13_SDH
Language                    : English
Default                     : No
Forced                      : No

Menu
00:00:00.000                : en:00:00:00.000
00:02:32.151                : en:00:02:32.152
00:06:18.628                : en:00:06:18.628
00:13:51.456                : en:00:13:51.456
00:17:23.125                : en:00:17:23.125
00:28:33.629                : en:00:28:33.629
00:33:00.645                : en:00:33:00.645
00:37:39.966                : en:00:37:39.966
00:42:55.614                : en:00:42:55.615
00:47:37.228                : en:00:47:37.229
00:53:30.999                : en:00:53:30.999
00:58:15.617                : en:00:58:15.617
01:01:21.469                : en:01:01:21.469
01:05:30.093                : en:01:05:30.093
01:09:14.817                : en:01:09:14.817
01:15:17.095                : en:01:15:17.096
01:21:41.729                : en:01:21:41.730
01:26:28.140                : en:01:26:28.141
01:31:55.844                : en:01:31:55.844
01:33:41.991                : en:01:33:41.991
Podobne torrenty
[DivX - XviD] Amerykański wilkołak w Londynie - An American Werewolf in London *1981* [DVDRip.XviD] [Napisy PL]
[DivX - XviD] Amerykański wilkołak w Londynie (1981) [DVDRip.XviD]
[x 264] An American Werewolf In London 1981 [BluRay.x264]
[HDTV-HD] Skowyt 2-Howling II Stirba:... Werewolf Bitch (1985)[BRRip 1080p by alE13 AC3][Lektor i Napisy Eng][Eng]
[HDTV-HD] Amerykańska partyzantka na Filipinach-American Guerrilla in the Philippines (1950)[BRRip 1080p x264 by alE13 AC3][Lektor PL i Napisy Eng][Eng]
[DivX - XviD] Wilkołak: Bestia w¶ród nas - Werewolf: The Beast Among Us *2012* [BRRip.XviD] [Napisy PL]
[DivX - XviD] Wilkołak Bestia w¶ród nan - Werewolf The Beast Among Us *2012* [BRRip] [XviD-GHW] [Lektor PL]
[HDTV-HD] Szybcy i w¶ciekli 8-The Fate of the Furious (2017)-alE13[BRRip 1080p x264 by alE13 AC3/DTS]Napisy PL/Eng][Eng]
[HDTV-HD] Co¶-The Thing (1982)[BRRip 1080p x264 by alE13 AC3][Lektor i Napisy PL/Eng][Eng]
[HDTV-HD] Gladiator(2000)[BRRip 1080p x264 by alE13 AC3][Lektor i Napisy PL/Eng][Eng]
Szczegóły torrenta
Trackerhttp://tracker.devil-torrents.pl/announce
Multitracker http://tracker.devil-torrents.pl/announce
http://tracker.torrentyorg.pl/announce
udp://tracker.opentrackr.org:1337/announce
udp://tracker.leechers-paradise.org:6969/announce
udp://tracker.ilibr.org:80/announce
udp://tracker.coppersurfer.tk:6969/announce
udp://p4p.arenabg.ch:1337/announce
udp://inferno.demonoid.pw:3391/announce

Kategoria:Filmy » HDTV-HD
Dodane28/06/2017 08:06:34
Ostatnie Uaktualnienie28/06/2017 08:19:34
Pokaż/Ukryj pliki:
15 plików
NIKT JESZCZE NIE DODAŁ KOMENTARZA

DODAJ KOMENTARZ
Więcej Emoticon



Wstecz

Żaden z opisanych na stronie plików nie jest przetrzymywany na serwerze. Administrator strony immortaltorrent.pl nie może ponieść konsekwencji prawnych za to co użytkownicy zamieszczają lub piszą na stronie.
Nie możesz używać tego serwisu do rozpowszechniania lub ściągania materiałów do których nie masz odpowiednich praw lub licencji. Użytkownicy zobowiązani są do przestrzeganie tych zasad.
Rejestracja konta jest jednoznaczna z akceptacją zasad.

2017 © immortaltorrent.pl


Najlepsze strony Torrentowe