Torrentów: 134770      Ranga: Gość               Stwórz konto Odzyskiwanie hasła


Kategorie
Filmy
 ⇒ DivX - XviD
 ⇒ RMVB
 ⇒ DVD-R
 ⇒ TV + Seriale
 ⇒ HDTV-HD
 ⇒ VCD - SVCD
 ⇒ x 264
 ⇒  3D
Gry
 ⇒ Gry PC
 ⇒ Gry Konsole
 ⇒ xbox360
Muzyka
 ⇒ Muzyka
 ⇒ Teledyski/Koncerty
Książki - Komiksy
 ⇒ E-Booki + Audio
 ⇒ Komiksy
Inne
 ⇒ XXX
 ⇒ Dla Dzieci
 ⇒ Sport
 ⇒ Pozostałe - Różne
 ⇒ Manga - Anime
 ⇒ GSM - PDA
Aplikacje
 ⇒ Windows
 ⇒ Linux + Macintosh



Detale torrenta

Pocahontas (1995)[DVDRip][Xvid-torentup][Lektor PL]
Kondycja:
Dodane: 12/09/2015
Rozmiar: 702.29 MB
Uploader: torentup

seed(ów): 4
leecher(ów): 0
Pobrane: 10





Ocena: N/A

Gatunek: ............ - Animacja, Romans
Produkcja: .......... - USA
Premiera: ........... - 17 listopada 1995 (Polska)   15 czerwca 1995 (świat)
Czas trwania: ....... -  n/n
Ocena Filmweb: ...... - 7,5 /10
Reżyseria: .......... - Mike Gabriel
Scenariusz: ......... - Philip LaZebnik, Susannah Grant, Carl Binder

..:: LINK ::..



XVII wiek, czas wielkich odkryć i podbojów kolonialnych. Grupa ochotników z Anglii pod wodzą przebiegłego gubernatora Ratcliffe’a rusza w podróż do Nowego Świata w celu zdobycia złota. Na miejscu okazuje się, że tereny te są zamieszkałe przez Indian. Córką wodza jest piękna i ciekawa świata Pocahontas. Jeden z członków wyprawy, John Smith, zakoc*censored*e się w niej. Dzięki Pocahontas poznaje piękno przyrody, którego nie znał do tej pory. Jednak czy ich miłość przetrwa to, że pochodzą z całkiem odmiennych, wrogich światów?


Irene Bedard............. - Pocahontas  (głos)
David Ogden Stiers....... - Gubernator Ratcliffe / Wiggins  (głos)
Russell Means............ - Wódz Powhatan  (głos)
Linda Hunt............... - Babcia Wierzba  (głos)
Gordon Tootoosis......... - Kekata  (głos)
Billy Connolly........... - Ben  (głos)
James Apaumut Fall....... - John Smith  (głos)
Mel Gibson............... -




Format                         : AVI
Format/Info                    : Audio Video Interleave
File size                      : 702 MiB
Duration                       : 1h 17mn
Overall bit rate mode          : Variable
Overall bit rate               : 1 262 Kbps
Writing application            : Nandub v1.0rc2
Writing library                : Nandub build 1853/release

Video
ID                             : 0
Format                         : MPEG-4 Visual
Codec ID                       : DIV3
Codec ID/Hint                  : DivX 3 Low
Duration                       : 1h 17mn
Bit rate                       : 1 100 Kbps
Width                          : 640 pixels
Height                         : 384 pixels
Display aspect ratio           : 1.667
Frame rate                     : 25.000 fps
Color space                    : YUV
Chroma subsampling             : 4:2:0
Bit depth                      : 8 bits
Compression mode               : Lossy
Bits/(Pixel*Frame)             : 0.179
Stream size                    : 612 MiB (87%)

Audio
ID                             : 1
Format                         : MPEG Audio
Format version                 : Version 1
Format profile                 : Layer 3
Codec ID                       : 55
Codec ID/Hint                  : MP3
Duration                       : 1h 17mn
Bit rate mode                  : Variable
Bit rate                       : 149 Kbps
Nominal bit rate               : 160 Kbps
Channel(s)                     : 2 channels
Sampling rate                  : 48.0 KHz
Compression mode               : Lossy
Stream size                    : 82.7 MiB (12%)
Alignment                      : Aligned on interleaves
Interleave, duration           : 24 ms (0.60 video frame)
Interleave, preload duration   : 315 ms
Writing library                : LAME3.93
Encoding settings              : -m s -V 4 -q 2 -lowpass 16.7 --abr 160
Podobne torrenty
[Dla Dzieci] Pocahontas *1995* [DVDRip.RMVB] [dub PL] [SAMPLE]
[Muzyka] Pocahontas: An Original Walt Disney Records Soundtrack (1995) [mp3@VBR]
[TV + Seriale] Awantura o Basię S01E01 *1995* [TVRip.Xvid-torentup] [AC3] [Film PL]
[TV + Seriale] Awantura o Basię S01E02 *1995* [TVRip.Xvid-torentup] [AC3] [Film PL]
[TV + Seriale] Awantura o Basię S01E03 *1995* [TVRip.Xvid-torentup] [AC3] [Film PL]
[TV + Seriale] Awantura o Basię S01E04 *1995* [TVRip.Xvid-torentup] [AC3] [Film PL]
[TV + Seriale] Awantura o Basię S01E05 *1995* [TVRip.Xvid-torentup] [AC3] [Film PL]
[TV + Seriale] Awantura o Basię S01E06 *1995* [TVRip.Xvid-torentup] [AC3] [Film PL]
[TV + Seriale] Awantura o Basię S01E07 *1995* [TVRip.Xvid-torentup] [AC3] [Film PL]
[TV + Seriale] Awantura o Basię S01E08 *1995* [TVRip.Xvid-torentup] [AC3] [Film PL]
Szczegóły torrenta
Trackerudp://tracker.openbittorrent.com:80/announce
Multitracker udp://tracker.openbittorrent.com:80/announce
udp://tracker.publicbt.com:80/announce
http://tracker.torrenty.org:6969/announce
http://tracker.filetracker.pl:8089/announce
http://tracker.aletorrenty.pl:2710/announce
udp://tracker.aletorrenty.pl:2710/announce
http://94.228.192.98/announce
udp://open.demonii.com:1337
udp://9.rarbg.com:2710/announce
udp://11.rarbg.com:80/announce
http://www.tlv.cc:7777/announce
http://tracker.ex.ua:80/announce
http://tracker.nwps.ws:6969/announce
http://announce.torrentsmd.com:6969/announce
udp://10.rarbg.com/announce
udp://tracker.istole.it:80/announce
udp://exodus.desync.com:6969
udp://exodus.desync.com:6969/announce
udp://tracker.publicbt.com:80/announce
udp://tracker.token.ro:80/announce
udp://castradio.net:6969/announce
udp://ipv4.tracker.harry.lu:80/announce
udp://tracker.prq.to:80/announce
udp://tracker.openbittorrent.com:80/announce
http://tracker.ex.ua:80/announce
udp://tracker.istole.it:80
udp://tracker.ilibr.org:6969/announce
udp://tracker.openbittorrent.com:80
http://tracker.filetracker.pl:8089/announce
http://exodus.desync.com:6969/announce
udp://tracker.prq.to:80/announce
http://tracker.ex.ua:80/announce
udp://tracker.istole.it:80
udp://tracker.ilibr.org:6969/announce
http://tracker.torrenty.org:6969/announce
udp://tracker.publicbt.com/announce
udp://openbittorrent.com:80
udp://9.rarbg.com:2710/announce
udp://t1.pow7.com/announce
udp://tracker.torrentbay.to:6969/announce
udp://tracker.prq.to/announce
udp://tracker.istole.it:80/announce
udp://exodus.desync.com:6969/announce
udp://exodus.desync.com:6969/announce
http://tracker.torrenty.org:6969/announce
http://free-torrents.org/bt/announce.php?uk=KMAQBe0sF1&
http://retracker.local/announce
http://10.rarbg.com:80/announce
http://360.kicks-ass.org/announce.php
http://64.62.145.163:6969/announce
http://alt.bitworld.to/announce.php
http://anvilofsound.com/announce
http://arcoiris.argonet.hu/announce.php
http://bithq.org/announce.php
http://bit-pit.com/announce.php
http://bittorrent.dyndns.org:6969/announce
http://bootcity.org:2710/announce
http://bt.edwardk.info:6969/announce
http://bt.go2id.net/announce.php
http://bt.moviehub.info/announce.php

Kategoria:Inne » Dla Dzieci
Dodane12/09/2015 19:09:49
Ostatnie Uaktualnienie08/12/2015 23:04:16
Pokaż/Ukryj pliki:
4 plików
NIKT JESZCZE NIE DODAŁ KOMENTARZA

DODAJ KOMENTARZ
Więcej Emoticon



Wstecz

Żaden z opisanych na stronie plików nie jest przetrzymywany na serwerze. Administrator strony immortaltorrent.pl nie może ponieść konsekwencji prawnych za to co użytkownicy zamieszczają lub piszą na stronie.
Nie możesz używać tego serwisu do rozpowszechniania lub ściągania materiałów do których nie masz odpowiednich praw lub licencji. Użytkownicy zobowiązani są do przestrzeganie tych zasad.
Rejestracja konta jest jednoznaczna z akceptacją zasad.

2017 © immortaltorrent.pl


Najlepsze strony Torrentowe