Torrentów: 134061      Ranga: Gość               Stwórz konto Odzyskiwanie hasła


Kategorie
Filmy
 ⇒ DivX - XviD
 ⇒ RMVB
 ⇒ DVD-R
 ⇒ TV + Seriale
 ⇒ HDTV-HD
 ⇒ VCD - SVCD
 ⇒ x 264
 ⇒  3D
Gry
 ⇒ Gry PC
 ⇒ Gry Konsole
 ⇒ xbox360
Muzyka
 ⇒ Muzyka
 ⇒ Teledyski/Koncerty
Książki - Komiksy
 ⇒ E-Booki + Audio
 ⇒ Komiksy
Inne
 ⇒ XXX
 ⇒ Dla Dzieci
 ⇒ Sport
 ⇒ Pozostałe - Różne
 ⇒ Manga - Anime
 ⇒ GSM - PDA
Aplikacje
 ⇒ Windows
 ⇒ Linux + Macintosh



Detale torrenta

Weekend w Zuydcoote-Week-end a Zuydcoote (1964)[BDRip 1080p x264 by alE13 AC3][Napisy PL/Eng][Fre]
Kondycja:
Dodane: 09/10/2016
Rozmiar: 7.96 GB
Uploader: alE13

seed(ów): 1
leecher(ów): 1
Pobrane: 16





Ocena: N/A



http://www.filmweb.pl/film/Weekend+w+Zuydcoote-1964-92968
http://www.imdb.com/title/tt0058740/

reżyseria: Henri Verneuil
scenariusz: Henri Verneuil,François Boyer
gatunek: Dramat,Wojenny,Romans
produkcja: Francja,Włochy
premiera: 18-12-1964
muzyka:         Maurice Jarre
zdjęcia:        Henri Decaë
czas:           1h 57mn

In June 1940, during the Dunkirk evacuation of Allied troops to England, French sergeant
Julien Maillat and his men debate whether to evacuate to Britain or stay and fight the German
troops that are closing-in from all directions.

W czerwcu 1940 roku podczas ewakuacji Dunkierki wojsk alianckich do Anglii, francuski sierżant
Julien Maillat i jego ludzie zastanawiają się, czy do ewakuować się do Wielkiej Brytanii czy zostać
i walczyć z niemieckimi wojska, które ich okrążyły ze wszystkich stron.

Dodam od siebie, mniej znany film Jean-Paul Belmondo i jego kapitalna rola, POLECAM.



obsada:

Jean-Paul Belmondo, Catherine Spaak, Georges Géret

dane techniczne:

Week-end a Zuydcoote (1964)-alE13.mkv
Format                      : Matroska
Format version              : Version 4 / Version 2
File size                   : 7.89 GiB
Duration                    : 1h 57mn
Overall bit rate            : 9 588 Kbps
Movie name                  : Week-end a Zuydcoote (1964)-alE13
Encoded date                : UTC 2016-10-09 06:13:42
Writing application         : mkvmerge v8.1.0 ('Psychedelic Postcard') 64bit
Writing library             : libebml v1.3.1 + libmatroska v1.4.2
Attachements                : cover.jpg
DURATION                    : 01:53:47.642000000
NUMBER_OF_FRAMES            : 1373
NUMBER_OF_BYTES             : 40601
_STATISTICS_WRITING_APP     : mkvmerge v8.1.0 ('Psychedelic Postcard') 64bit
_STATISTICS_WRITING_DATE_UT : 2016-10-09 06:13:42
_STATISTICS_TAGS            : BPS DURATION NUMBER_OF_FRAMES NUMBER_OF_BYTES

Video
ID                          : 1
Format                      : AVC
Format/Info                 : Advanced Video Codec
Format profile              : High@L4.1
Format settings, CABAC      : Yes
Format settings, ReFrames   : 2 frames
Codec ID                    : V_MPEG4/ISO/AVC
Duration                    : 1h 57mn
Bit rate                    : 9 201 Kbps
Width                       : 1 920 pixels
Height                      : 776 pixels
Display aspect ratio        : 2.474
Frame rate mode             : Constant
Frame rate                  : 25.000 fps
Color space                 : YUV
Chroma subsampling          : 4:2:0
Bit depth                   : 8 bits
Scan type                   : Progressive
Bits/(Pixel*Frame)          : 0.247
Stream size                 : 7.42 GiB (94%)
Title                       : Week-end a Zuydcoote (1964)-alE13
Writing library             : x264 core 142
Default                     : Yes
Forced                      : No
Color range                 : Limited
Color primaries             : BT.709
Transfer characteristics    : BT.709
Matrix coefficients         : BT.709

Audio
ID                          : 2
Format                      : AC-3
Format/Info                 : Audio Coding 3
Mode extension              : CM (complete main)
Format settings, Endianness : Big
Codec ID                    : A_AC3
Duration                    : 1h 57mn
Bit rate mode               : Constant
Bit rate                    : 384 Kbps
Channel(s)                  : 2 channels
Channel positions           : Front: L R
Sampling rate               : 48.0 KHz
Compression mode            : Lossy
Stream size                 : 324 MiB (4%)
Title                       : Week-end a Zuydcoote (1964)-alE13
Language                    : French
Default                     : No
Forced                      : No

Text #1
ID                          : 3
Format                      : UTF-8
Codec ID                    : S_TEXT/UTF8
Codec ID/Info               : UTF-8 Plain Text
Title                       : Week-end a Zuydcoote (1964)-alE13
Language                    : Polish
Default                     : Yes
Forced                      : No

Text #2
ID                          : 4
Format                      : UTF-8
Codec ID                    : S_TEXT/UTF8
Codec ID/Info               : UTF-8 Plain Text
Title                       : Week-end a Zuydcoote (1964)-alE13
Language                    : English
Default                     : No
Forced                      : No
Podobne torrenty
[ 3D] Załoga-Ekipazh 3D (2016)[BDRip 1080p x264 by alE13 AC3][Napisy PL/Eng][Rus]
[HDTV-HD] Zaginiony Trop-Skiptrace (2016)[BDRip 1080p x264 by alE13 AC3][Napisy PL/Eng][Eng]
[HDTV-HD] State of Grace (1990)[BDRip 1080p x264 by alE13 AC3/DTS][Lektor i Napisy PL/Eng][Eng]
[HDTV-HD] W Potrzasku-The Hunted (1995)[BDRip 1080p x264 by alE13 AC3/DTS][Lektor i Napisy PL/Eng][Eng]
[HDTV-HD] Krwawy Ojciec-Blood Father (2016) [BDRip 1080p x264 by alE13 AC3/DTS]Napisy PL/Eng][Eng]
[HDTV-HD] Aladyn-Aladdin(1992/1996)(Trilogy)[BDRip 1080p x264 by alE13 AC3][Dubbing i Napisy PL/Eng][Eng]
[HDTV-HD] Księgowy-Accountant (2016)[BDRip 1080p by alE13 DTS/AC3[Napisy PL/Eng][Eng]
[HDTV-HD] Zderzenie-Collide (2016)[BDRip 1080p by alE13 DTS/AC3[Napisy PL/Eng][Eng]
[HDTV-HD] Tajemnice Los Angeles-L.A. Confidential (1997)[BDRip 1080p by alE13 AC3[Napisy PL/Eng][Eng]
[HDTV-HD] Głęboka Czerwień-Deep Red (1975)[BDRip 1080p by alE13 AC3[Napisy PL/Eng][Eng/Ita]
Szczegóły torrenta
Trackerhttp://mgtracker.org:2710/announce
Multitracker http://mgtracker.org:2710/announce
http://pow7.com:80/announce
http://pow7.com/announce
udp://tracker.leechers-paradise.org:6969/announce
udp://tracker.coppersurfer.tk:6969/announce
udp://tracker.opentrackr.org:1337/announce
udp://tracker.coppersurfer.tk:6969/announce
udp://tracker.leechers-paradise.org:6969/announce
udp://eddie4.nl:6969/announce
udp://tracker.coppersurfer.tk:6969/announce
udp://p4p.arenabg.com:1337/announce
udp://p4p.arenabg.ch:1337/announce
udp://tracker.internetwarriors.net:1337/announce
udp://tracker.openbittorrent.com:80/announce
udp://tracker.piratepublic.com:1337/announce
udp://tracker.opentrackr.org:1337/announce
udp://explodie.org:6969/announce
udp://p4p.arenabg.ch:1337/announce
udp://inferno.demonoid.ooo:3392/announce
udp://inferno.demonoid.pw:3393/announce
udp://tracker.coppersurfer.tk:6969/announce
udp://zer0day.to:1337/announce
udp://tracker.ilibr.org:6969/announce
udp://tracker.leechers-paradise.org:6969/announce
udp://eddie4.nl:6969/announce
udp://tracker.ilibr.org:80/announce

Kategoria:Filmy » HDTV-HD
Dodane09/10/2016 19:10:35
Ostatnie Uaktualnienie24/10/2016 09:05:47
Pokaż/Ukryj pliki:
10 plików
NIKT JESZCZE NIE DODAŁ KOMENTARZA

DODAJ KOMENTARZ
Więcej Emoticon



Wstecz

Żaden z opisanych na stronie plików nie jest przetrzymywany na serwerze. Administrator strony immortaltorrent.pl nie może ponieść konsekwencji prawnych za to co użytkownicy zamieszczają lub piszą na stronie.
Nie możesz używać tego serwisu do rozpowszechniania lub ściągania materiałów do których nie masz odpowiednich praw lub licencji. Użytkownicy zobowiązani są do przestrzeganie tych zasad.
Rejestracja konta jest jednoznaczna z akceptacją zasad.

2017 © immortaltorrent.pl


Najlepsze strony Torrentowe