Torrentów: 155969      Ranga: Gosc               Stwórz konto Odzyskiwanie hasła


Kategorie
Filmy
 ⇒ DivX - XviD
 ⇒ RMVB
 ⇒ DVD-R
 ⇒ TV + Seriale
 ⇒ HDTV-HD
 ⇒ VCD - SVCD
 ⇒ x 264
 ⇒  3D
Gry
 ⇒ Gry PC
 ⇒ Gry Konsole
 ⇒ xbox360
Muzyka
 ⇒ Muzyka
 ⇒ Teledyski/Koncerty
Książki - Komiksy
 ⇒ E-Booki + Audio
 ⇒ Komiksy
Inne
 ⇒ XXX
 ⇒ Dla Dzieci
 ⇒ Sport
 ⇒ Pozostałe - Różne
 ⇒ Manga - Anime
 ⇒ GSM - PDA
Aplikacje
 ⇒ Windows
 ⇒ Linux + Macintosh



Detale torrenta

Red Mist 2008 [DVDRip.Xvid] [ENG]
Kondycja:
Dodane: 16/02/2011
Rozmiar: 872.67 MB
Uploader: Anonimowy
seed(ów): 3
leecher(ów): 2
Pobrane: 10





Ocena: N/A


TYTU£ FILMU: \"Freakdog\" ( \"Red Mist\" )
PRODUKCJA: Wielka Brytania
GATUNEK: Horror, Thriller
CZAS TRWANIA: 86 minut
DATA PREMIERY: 22.08.2008 - ¦wiat
RE¯YSERIA: Paddy Breathnach
SCENARIUSZ: Spence Wright

Opis:

Akcja dzieje siê w szpitalu, gdzie m³ody anestezjolog zacznie eksperymentowaæ z nowym ¶rodkiem usypiaj±cym. Jak siê oka¿e, bêdzie mia³o to zgubny wp³yw na praktykuj±cych tam studentów medycyny, który przyjdzie borykaæ siê z zemst± szpitalnego sprz±tacza, który mo¿e przejmowaæ kontrolê nad dowoln± osob±, mimo ¿e jest w ¶pi±czce.

Obsada:

Arielle Kebbel
Sarah Carter
Stephen Dillane
MyAnna Buring


Video
ID : 0
Format : MPEG-4 Visual
Format profile : Advanced Simple@L5
Format settings, BVOP : Yes
Format settings, QPel : No
Format settings, GMC : No warppoints
Format settings, Matrix : Default (H.263)
Codec ID : XVID
Codec ID/Hint : XviD
Duration : 1h 25mn
Bit rate : 977 Kbps
Width : 704 pixels
Height : 396 pixels
Display aspect ratio : 16:9
Frame rate : 23.976 fps
Color space : YUV
Chroma subsampling : 4:2:0
Bit depth : 8 bits
Scan type : Progressive
Compression mode : Lossy
Bits/(Pixel*Frame) : 0.146
Stream size : 596 MiB (68%)
Writing library : XviD 1.2.1 (UTC 2008-12-04)

Audio
ID : 1
Format : AC-3
Format/Info : Audio Coding 3
Mode extension : CM (complete main)
Codec ID : 2000
Duration : 1h 25mn
Bit rate mode : Constant
Bit rate : 448 Kbps
Channel(s) : 6 channels
Channel positions : Front: L C R, Side: L R, LFE
Sampling rate : 48.0 KHz
Bit depth : 16 bits
Compression mode : Lossy
Video delay : 42ms
Stream size : 273 MiB (31%)
Alignment : Split accross interleaves
Interleave, duration : 500 ms (11.99 video frames)
Interleave, preload duration : 500 ms
Language : English

http://www.imdb.com/title/tt1185264/



http://leetleech.org/images/33277040556775720631.png
http://leetleech.org/images/58769923842615486640.png
http://leetleech.org/images/31500079805854759515.jpg
http://leetleech.org/images/20043658510596460456.png
http://leetleech.org/images/72080147901286821475.png
Podobne torrenty
[DivX - XviD] Mgła The Mist - The Mist (2007) [720p] [HDTV] [XViD] [AC3-H1] [Lektor PL]
[DivX - XviD] Red Mist 2008 [DVDRip.XviD]
[DivX - XviD] In The Electric Mist (2008) [DVDScr.XviD]
[DivX - XviD] In The Electric Mist *2008* [DVDSCR.XviD] [Napisy PL]
[DivX - XviD] The Mist [DVDRip.XviD]
[DivX - XviD] The Mist [DVDRip.XviD]
[x 264] Freakdog - Red Mist 2008 [BRRip.x264]
[DivX - XviD] Mg?a - The Mist * 2007 * [DVDRip. XviD - FxM]
[DivX - XviD] In the Electric Mist [2009] [DVDRip.XviD]
[DivX - XviD] Mg³a - The Mist *2007* [DVDRip.XviD][ENG]
Szczegóły torrenta
Trackerhttp://tracker.publicbt.com:80/announce
Kategoria:Filmy » DivX - XviD
Dodane16/02/2011 13:02:52
Ostatnie Uaktualnienie06/09/2012 04:56:44
NIKT JESZCZE NIE DODAŁ KOMENTARZA

DODAJ KOMENTARZ
Więcej Emoticon



Wstecz

Żaden z opisanych na stronie plików nie jest przetrzymywany na serwerze. Administrator strony immortaltorrent.pl nie może ponieść konsekwencji prawnych za to co użytkownicy zamieszczają lub piszą na stronie.
Nie możesz używać tego serwisu do rozpowszechniania lub ściągania materiałów do których nie masz odpowiednich praw lub licencji. Użytkownicy zobowiązani są do przestrzeganie tych zasad.
Rejestracja konta jest jednoznaczna z akceptacją zasad.

2020 © immortaltorrent.pl


Najlepsze strony Torrentowe