Torrentów: 136515      Ranga: Gość               Stwórz konto Odzyskiwanie hasła


Kategorie
Filmy
 ⇒ DivX - XviD
 ⇒ RMVB
 ⇒ DVD-R
 ⇒ TV + Seriale
 ⇒ HDTV-HD
 ⇒ VCD - SVCD
 ⇒ x 264
 ⇒  3D
Gry
 ⇒ Gry PC
 ⇒ Gry Konsole
 ⇒ xbox360
Muzyka
 ⇒ Muzyka
 ⇒ Teledyski/Koncerty
Książki - Komiksy
 ⇒ E-Booki + Audio
 ⇒ Komiksy
Inne
 ⇒ XXX
 ⇒ Dla Dzieci
 ⇒ Sport
 ⇒ Pozostałe - Różne
 ⇒ Manga - Anime
 ⇒ GSM - PDA
Aplikacje
 ⇒ Windows
 ⇒ Linux + Macintosh



Detale torrenta

Piraci z Karaibów 5-Pirates of the Caribbean: Dead Men Tell No Tales (2017)-alE13_AC3[WebRip 1080p x264 by alE13 AC3][Dubbing i Napisy PL][Eng]
Kondycja:
Dodane: 10/09/2017
Rozmiar: 7.82 GB
Uploader: alE13

seed(ów): 1
leecher(ów): 0
Pobrane: 0





Ocena: N/A

[img]https://i.imgur.com/F92u9rP.jpg[/img]

http://www.imdb.com/title/tt1790809/
http://www.filmweb.pl/film/Piraci+z+Karaib%C3%B3w%3A+Zemsta+Salazara-2017-606542

Audio PL Kinowe.
Plik zawiera sample.


Pełny tytuł: Piraci z Karaibów: Zemsta Salazara

reżyseria: Joachim Rønning,Espen Sandberg
scenariusz: Jeff Nathanson
gatunek: Fantasy,Przygodowy
produkcja: Australia,USA
premiera: 11-05-2017
muzyka:         Geoff Zanelli
zdjęcia:        Paul Cameron
czas:           2h 9min

opis:

Captain Jack Sparrow searches for the trident of Poseidon while being pursued by an undead sea captain and his crew.

Złowrogi korsarz ucieka z mitycznego więzienia i planuje zgładzić wszystkich piratów na morzach. Aby mu
przeszkodzić, Jack Sparrow musi zdobyć Trójząb Posejdona.

https://i.imgur.com/AKEuA4H.jpg
https://i.imgur.com/z2jvlV4.jpg
https://i.imgur.com/YJESgkT.jpg
https://i.imgur.com/PsZReZb.jpg

obsada:

Johnny Depp, Geoffrey Rush, Javier Bardem

dane techniczne:

Pirates of the Caribbean-Dead Men Tell No Tales (2017)-alE13.mkv
Format                      : Matroska
Format version              : Version 4 / Version 2
File size                   : 7.78 GiB
Duration                    : 2 h 9 min
Overall bit rate            : 8 623 kb/s
Movie name                  : Pirates of the Caribbean-Dead Men Tell No Tales (2017)-alE13
Encoded date                : UTC 2017-09-10 04:50:43
Writing application         : mkvmerge v8.1.0 ('Psychedelic Postcard') 64bit
Writing library             : libebml v1.3.1 + libmatroska v1.4.2
Cover                       : Yes
Attachments                 : Cover.jpg

Video
ID                          : 1
Format                      : AVC
Format/Info                 : Advanced Video Codec
Format profile              : High@L4.1
Format settings, CABAC      : Yes
Format settings, RefFrames  : 2 frames
Codec ID                    : V_MPEG4/ISO/AVC
Duration                    : 2 h 9 min
Bit rate                    : 7 918 kb/s
Width                       : 1 920 pixels
Height                      : 800 pixels
Display aspect ratio        : 2.40:1
Frame rate mode             : Constant
Frame rate                  : 23.976 (24000/1001) FPS
Color space                 : YUV
Chroma subsampling          : 4:2:0
Bit depth                   : 8 bits
Scan type                   : Progressive
Bits/(Pixel*Frame)          : 0.215
Stream size                 : 7.14 GiB (92%)
Title                       : Pirates of the Caribbean-Dead Men Tell No Tales (2017)-alE13
Writing library             : x264 core 142
Default                     : Yes
Forced                      : No
Color range                 : Limited
Color primaries             : BT.709
Transfer characteristics    : BT.709
Matrix coefficients         : BT.709

Audio #1
ID                          : 2
Format                      : AC-3
Format/Info                 : Audio Coding 3
Format settings, Endianness : Big
Codec ID                    : A_AC3
Duration                    : 2 h 9 min
Bit rate mode               : Constant
Bit rate                    : 448 kb/s
Channel(s)                  : 6 channels
Channel positions           : Front: L C R, Side: L R, LFE
Sampling rate               : 48.0 kHz
Frame rate                  : 31.250 FPS (1536 SPF)
Bit depth                   : 16 bits
Compression mode            : Lossy
Stream size                 : 414 MiB (5%)
Title                       : Pirates of the Caribbean-Dead Men Tell No Tales (2017)-alE13_AC3
Language                    : English
Service kind                : Complete Main
Default                     : No
Forced                      : No

Audio #2
ID                          : 3
Format                      : AC-3
Format/Info                 : Audio Coding 3
Format settings, Endianness : Big
Codec ID                    : A_AC3
Duration                    : 2 h 9 min
Bit rate mode               : Constant
Bit rate                    : 256 kb/s
Channel(s)                  : 2 channels
Channel positions           : Front: L R
Sampling rate               : 48.0 kHz
Frame rate                  : 31.250 FPS (1536 SPF)
Bit depth                   : 16 bits
Compression mode            : Lossy
Delay relative to video     : 300 ms
Stream size                 : 236 MiB (3%)
Title                       : Pirates of the Caribbean-Dead Men Tell No Tales (2017)-alE13_AC3_kinowy
Language                    : Polish
Service kind                : Complete Main
Default                     : Yes
Forced                      : No

Text
ID                          : 4
Format                      : UTF-8
Codec ID                    : S_TEXT/UTF8
Codec ID/Info               : UTF-8 Plain Text
Duration                    : 1 h 55 min
Bit rate                    : 47 b/s
Count of elements           : 1146
Stream size                 : 40.2 KiB (0%)
Title                       : Pirates of the Caribbean-Dead Men Tell No Tales (2017)-alE13_SRT
Language                    : Polish
Default                     : No
Forced                      : No

Menu
00:00:00.000                : en:Father's Curse
00:05:50.000                : en:"Arrest Him"
00:08:34.000                : en:Captain Salazar
00:13:40.000                : en:"Stop That Witch"
00:16:29.000                : en:Runaway Bank
00:22:34.000                : en:Bad Luck
00:25:19.000                : en:"Hidden In The Stars"
00:28:06.000                : en:"We Are Free"
00:31:41.000                : en:Blood Moon
00:33:44.000                : en:"Looking For A Pirate"
00:37:02.000                : en:Barbossa's Treasure
00:42:27.000                : en:"Final Words"
00:49:09.000                : en:"Cordiality"
00:54:00.000                : en:Bluffing
00:57:19.000                : en:"Closer Than You Think"
01:00:38.000                : en:Salazar's Story
01:08:30.000                : en:Mutiny
01:11:57.000                : en:Ghost Sharks
01:16:51.000                : en:"Unscratchable Itch"
01:19:27.000                : en:Wedding Day
01:25:04.000                : en:"Just Believe Her"
01:27:42.000                : en:"So You're An Orphan"
01:31:43.000                : en:"Nowhere To Hide"
01:38:22.000                : en:The Island
01:42:36.000                : en:Poseidon's Trident
01:47:23.000                : en:"All Must Divide"
01:52:58.000                : en:"Let Me Tell You A Tale"
01:59:10.000                : en:Credits
Podobne torrenty
[HDTV-HD] Piraci z Karaibów: Zemsta Salazara - Pirates of the Caribbean: Dead Men Tell No Tales *2017* [1080p] [BDRip] [AC3] [XViD-MORS] [DUBBING PL] [zibi6248]
[x 264] Piraci z Karaibów: Zemsta Salazara - Pirates of the Caribbean: Dead Men Tell No Tales *2017* [MD] [HDTS] [x264-FOX] [Dubbing PL] [zibi6248]
[x 264] Piraci z Karaibów: Zemsta Salazara - Pirates of the Caribbean Dead Men Tell No Tales *2017* [MD] [720p] [WEB-DL] [x264-KiT] [Dubbing PL] [zibi6248]
[x 264] Piraci z Karaibów: Zemsta Salazara / Pirates of the Caribbean: Dead Men Tell No Tales (2017) [720p] [WEB-DL] [x264] [MD-KiT] [DUBBING PL] [Karibu]
[x 264] Piraci z Karaibów: Zemsta Salazara - Pirates of the Caribbean Dead Men Tell No Tales *2017* [MD] [720p] [BluRay] [x264.AC3-KRT] [DUBBiNG PL] [zibi6248]
[x 264] Piraci z Karaibów: Zemsta Salazara / Pirates of the Caribbean Dead Men Tell No Tales (2017) [1080p] [WEB-DL] [H264] [AC3-EVO] [ENG] [Karibu]
[DivX - XviD] Piraci z Karaibów: Zemsta Salazara / Pirates Of The Caribbean: Dead Men Tell No Tales (2017) [HDTS] [XviD.MD] [Dubbing PL Kino]
[DivX - XviD] Piraci z Karaibów: Zemsta Salazara - Pirates of the Caribbean Dead Men Tell No Tales (2017) [720p] [BRRip] [XviD] [AC3-D14] [Dubbing PL]
[DivX - XviD] Piraci z Karaibów: Zemsta Salazara - Pirates of the Caribbean Dead Men Tell No Tales *2017* [WEB-DL] [XviD-KRT] [Napisy PL] [zibi6248]
[DivX - XviD] Piraci z Karaibów: Zemsta Salazara / Pirates of the Caribbean Dead Men Tell No Tales (2017) [BRRip.XViD-OzW] [Napisy PL]
Szczegóły torrenta
Trackerhttp://tracker.devil-torrents.pl/announce
Multitracker http://tracker.devil-torrents.pl/announce
http://tracker.torrentyorg.pl/announce
udp://tracker.opentrackr.org:1337/announce
udp://tracker.leechers-paradise.org:6969/announce
udp://tracker.ilibr.org:80/announce
udp://tracker.coppersurfer.tk:6969/announce
udp://p4p.arenabg.ch:1337/announce
udp://inferno.demonoid.pw:3391/announce

Kategoria:Filmy » HDTV-HD
Dodane10/09/2017 08:09:13
Ostatnie Uaktualnienie10/09/2017 08:38:14
Pokaż/Ukryj pliki:
16 plików
NIKT JESZCZE NIE DODAŁ KOMENTARZA

DODAJ KOMENTARZ
Więcej Emoticon



Wstecz

Żaden z opisanych na stronie plików nie jest przetrzymywany na serwerze. Administrator strony immortaltorrent.pl nie może ponieść konsekwencji prawnych za to co użytkownicy zamieszczają lub piszą na stronie.
Nie możesz używać tego serwisu do rozpowszechniania lub ściągania materiałów do których nie masz odpowiednich praw lub licencji. Użytkownicy zobowiązani są do przestrzeganie tych zasad.
Rejestracja konta jest jednoznaczna z akceptacją zasad.

2017 © immortaltorrent.pl


Najlepsze strony Torrentowe