Torrentów: 134352      Ranga: Gość               Stwórz konto Odzyskiwanie hasła


Kategorie
Filmy
 ⇒ DivX - XviD
 ⇒ RMVB
 ⇒ DVD-R
 ⇒ TV + Seriale
 ⇒ HDTV-HD
 ⇒ VCD - SVCD
 ⇒ x 264
 ⇒  3D
Gry
 ⇒ Gry PC
 ⇒ Gry Konsole
 ⇒ xbox360
Muzyka
 ⇒ Muzyka
 ⇒ Teledyski/Koncerty
Książki - Komiksy
 ⇒ E-Booki + Audio
 ⇒ Komiksy
Inne
 ⇒ XXX
 ⇒ Dla Dzieci
 ⇒ Sport
 ⇒ Pozostałe - Różne
 ⇒ Manga - Anime
 ⇒ GSM - PDA
Aplikacje
 ⇒ Windows
 ⇒ Linux + Macintosh



Detale torrenta

Mgła-The Mist*2007*[720p][BRRip-AVC x264.AC3-romnik][lektor pl]
Kondycja:
Dodane: 24/07/2014
Rozmiar: 2.54 GB
Uploader: JoannaC

seed(ów): 3
leecher(ów): 1
Pobrane: 63





Ocena: N/A

..::(Info)::..

Mgła - The Mist 2007


gatunek: Horror
produkcja: USA
premiera: 7 marca 2008  (Polska)  21 listopada 2007  (świat)
reżyseria: Frank Darabont
scenariusz: Frank Darabont

..::(Opis)::..

Adaptacja opowiadania Stephena Kinga. W gęstej i nieprzeniknionej mgle na ludzi zaczynają polować tajemnicze istoty.

..::(Obsada)::..

Thomas Jane---David Drayton  
Marcia Gay Harden---Pani Carmody  
Laurie Holden---Amanda Dunfrey  
Andre Braugher---Brent Norton  
Toby Jones---Ollie Weeks  
William Sadler---Jim Grondin  
Jeffrey DeMunn---Dan Miller  
Frances Sternhagen---Irene

..::(Dane Techniczne)::..

Video
ID                                       : 0
Format                                   : AVC
Format/Info                              : Advanced Video Codec
Format profile                           : High@L3.1
Format settings, CABAC                   : Yes
Format settings, ReFrames                : 4 frames
Codec ID                                 : H264
Duration                                 : 2h 5mn
Bit rate                                 : 2 500 Kbps
Width                                    : 1 280 pixels
Height                                   : 720 pixels
Display aspect ratio                     : 16:9
Frame rate                               : 23.976 fps
Color space                              : YUV
Chroma subsampling                       : 4:2:0
Bit depth                                : 8 bits
Scan type                                : Progressive
Bits/(Pixel*Frame)                       : 0.113
Stream size                              : 2.20 GiB (86%)
Writing library                          : x264 core 142

Audio
ID                                       : 1
Format                                   : AC-3
Format/Info                              : Audio Coding 3
Mode extension                           : CM (complete main)
Format settings, Endianness              : Big
Codec ID                                 : 2000
Duration                                 : 2h 5mn
Bit rate mode                            : Constant
Bit rate                                 : 384 Kbps
Channel(s)                               : 6 channels
Channel positions                        : Front: L C R, Side: L R, LFE
Sampling rate                            : 48.0 KHz
Bit depth                                : 16 bits
Compression mode                         : Lossy
Stream size                              : 346 MiB (13%)
Alignment                                : Aligned on interleaves
Interleave, duration                     : 32 ms (0.77 video frame)
Podobne torrenty
[DivX - XviD] The Mist (Mgła)2007
[DivX - XviD] Mgła - The Mist *2007* [DVDRip]
[DivX - XviD] Mgła - The Mist * 2007 * [CAM. XViD - CAMERA]
[DivX - XviD] Mgła - The Mist *2007* [DVDRip.XviD][ENG]
[DivX - XviD] Mgła - The Mist *2007* [DVDRip.XviD]
[x 264] Mgła - The Mist *2007* [DVDRip.h264] [ENG]
[x 264] Pozdrowienia z Rosji-From Russia with Love*1963*[720p][BRRip-AVC x264.AC3-romnik][lektor pl]
[x 264] James Bond - Skyfall*2012*[miniHD][720p][BRRip-AVC x264.AC3-romnik][lektor pl]
[RMVB] Mgła - The Mist *2007* [DVDRip.RMVB] [Napisy PL]
[x 264] James Bond - Ośmiorniczka-Octopussy*1983*[miniHD][720p][BRRip-AVC x264.AC3-romnik][lektor pl]
Szczegóły torrenta
Trackerhttp://94.228.192.98/announce
Multitracker http://94.228.192.98/announce
udp://tracker.openbittorrent.com:80/announce
udp://tracker.publicbt.com:80/announce
http://i.bandito.org/announce
http://tracker.torrent.to:2710/announce

Kategoria:Filmy » DivX - XviD
Dodane24/07/2014 17:07:00
Ostatnie Uaktualnienie25/07/2014 12:17:24
Pokaż/Ukryj pliki:
2 plików
NIKT JESZCZE NIE DODAŁ KOMENTARZA

DODAJ KOMENTARZ
Więcej Emoticon



Wstecz

Żaden z opisanych na stronie plików nie jest przetrzymywany na serwerze. Administrator strony immortaltorrent.pl nie może ponieść konsekwencji prawnych za to co użytkownicy zamieszczają lub piszą na stronie.
Nie możesz używać tego serwisu do rozpowszechniania lub ściągania materiałów do których nie masz odpowiednich praw lub licencji. Użytkownicy zobowiązani są do przestrzeganie tych zasad.
Rejestracja konta jest jednoznaczna z akceptacją zasad.

2017 © immortaltorrent.pl


Najlepsze strony Torrentowe