Torrentów: 156429      Ranga: Gosc               Stwórz konto Odzyskiwanie hasła


Kategorie
Filmy
 ⇒ DivX - XviD
 ⇒ RMVB
 ⇒ DVD-R
 ⇒ TV + Seriale
 ⇒ HDTV-HD
 ⇒ VCD - SVCD
 ⇒ x 264
 ⇒  3D
Gry
 ⇒ Gry PC
 ⇒ Gry Konsole
 ⇒ xbox360
Muzyka
 ⇒ Muzyka
 ⇒ Teledyski/Koncerty
Książki - Komiksy
 ⇒ E-Booki + Audio
 ⇒ Komiksy
Inne
 ⇒ XXX
 ⇒ Dla Dzieci
 ⇒ Sport
 ⇒ Pozostałe - Różne
 ⇒ Manga - Anime
 ⇒ GSM - PDA
Aplikacje
 ⇒ Windows
 ⇒ Linux + Macintosh



Detale torrenta

Storm Warning *2007* [DVDRIP.XviD]
Kondycja:
Dodane: 21/05/2009
Rozmiar: 708.06 MB
Uploader: Anonimowy
seed(ów): 21
leecher(ów): 68
Pobrane: 27





Ocena: N/A

Produkcja: Australia
Gatunek: Horror
Data premiery: 2007-02-05 (¦wiat)
Re¿yseria: Jamie Blanks
Scenariusz: Everett De Roche
Zdjêcia: Karl von Moller

Opis filmu:
Pia, artystka i Rob, prawnik, wybieraj± siê na krótki rejs niewielk± ³ódk±. Pogoda niezbyt dopisuje, na dodatek psuje siê silnik, przez co para dryfuje w nieznane sobie rejony. Po wydostaniu siê na l±d bohaterowie szukaj± schronienia, gdzie mogliby siê ogrzaæ i zadzwoniæ po pomoc. Trafiaj± na odludn± farmê pod nieobecno¶æ w³a¶cicieli. Myszkuj±c po zabudowaniach, odkrywaj± w szopie spor± plantacjê marihuany. Gdy mieszkañcy zrujnowanego domu wracaj± na farmê okazuje siê, ¿e nie s± wcale przyja¼nie nastawieni, telefon nie dzia³a, a trójka "farmerów" nie ma najmniejszej ochoty wypu¶ciæ Pi i Roba ¿ywcem.

Obsada:
Nadia Farès: Pia
John Brumpton: Poppy
Robert Taylor: Rob
David Lyons: Jimmy
Mathew Wilkinson: Brett

info:
Video
Format : MPEG-4 Visual
Format profile : Streaming Video@L1
Codec ID : DX50
Codec ID/Hint : DivX 5
Duration : 1h 26mn
Bit rate : 1005 Kbps
Width : 720 pixels
Height : 416 pixels
Display aspect ratio : 16/9
Frame rate : 23.976 fps
Resolution : 24 bits
Colorimetry : 4:2:0
Scan type : Progressive
Bits/(Pixel*Frame) : 0.140
Stream size : 619 MiB (88%)
Writing library : XviD

Audio
Format : MPEG Audio
Format version : Version 1
Format profile : Layer 3
Codec ID : 55
Codec ID/Hint : MP3
Duration : 1h 26mn
Bit rate mode : Constant
Bit rate : 128 Kbps
Minimum bit rate : 128 Kbps
Channel(s) : 2 channels
Sampling rate : 48.0 KHz
Resolution : 16 bits
Stream size : 78.9 MiB (11%)
Writing library : LAME3.98r
Encoding settings : CBR
Podobne torrenty
[DivX - XviD] Storm Warning *2007* [DVDRip.XviD] [Lektor PL]
[DivX - XviD] Storm Warning [2007] [DVDrip]
[DivX - XviD] Przed burz± - Storm Warning *2007* (Extreme Edition) [DVDRip]
[RMVB] Przed Burz± - Storm Warning *2007* [DVDRip.RMVB] [Lektor PL]
[DivX - XviD] Przed burz± - Storm Warning *2007* [BRRip] [XviD-J25] [Lektor PL]
[DivX - XviD] Przed burzą - Storm Warning (2007) [480p] [WEB-DL] [XviD] [AC3-H1] [Lektor PL]
[DivX - XviD] Przed burz± - Storm Warning (2007) [LEKTOR PL]
[HDTV-HD] Storm Warning *2007* (Extreme Edition) [720p.BluRay.DTS.x264-HDV]
[DivX - XviD] Without Warning *1980* [DVDRip] [XviD]
[DivX - XviD] Sygna³ ostrzegawczy - Warning Sign* 1985* [DVDRip.XviD] [Napisy PL]
Szczegóły torrenta
Trackerhttp://tracker.thepiratebay.org/announce
Kategoria:Filmy » DivX - XviD
Dodane21/05/2009 17:05:20
Ostatnie Uaktualnienie01/03/2013 10:42:50
NIKT JESZCZE NIE DODAŁ KOMENTARZA

DODAJ KOMENTARZ
Więcej Emoticon



Wstecz

Żaden z opisanych na stronie plików nie jest przetrzymywany na serwerze. Administrator strony immortaltorrent.pl nie może ponieść konsekwencji prawnych za to co użytkownicy zamieszczają lub piszą na stronie.
Nie możesz używać tego serwisu do rozpowszechniania lub ściągania materiałów do których nie masz odpowiednich praw lub licencji. Użytkownicy zobowiązani są do przestrzeganie tych zasad.
Rejestracja konta jest jednoznaczna z akceptacją zasad.

2020 © immortaltorrent.pl


Najlepsze strony Torrentowe