Torrentów: 137984      Ranga: Gość               Stwórz konto Odzyskiwanie hasła


Kategorie
Filmy
 ⇒ DivX - XviD
 ⇒ RMVB
 ⇒ DVD-R
 ⇒ TV + Seriale
 ⇒ HDTV-HD
 ⇒ VCD - SVCD
 ⇒ x 264
 ⇒  3D
Gry
 ⇒ Gry PC
 ⇒ Gry Konsole
 ⇒ xbox360
Muzyka
 ⇒ Muzyka
 ⇒ Teledyski/Koncerty
Książki - Komiksy
 ⇒ E-Booki + Audio
 ⇒ Komiksy
Inne
 ⇒ XXX
 ⇒ Dla Dzieci
 ⇒ Sport
 ⇒ Pozostałe - Różne
 ⇒ Manga - Anime
 ⇒ GSM - PDA
Aplikacje
 ⇒ Windows
 ⇒ Linux + Macintosh



Detale torrenta

Swelter *2014* [BRRip XviD ] [AC3][ENG]
Kondycja:
Dodane: 19/06/2014
Rozmiar: 915.18 MB
Uploader: blackangel

seed(ów): 77
leecher(ów): 84
Pobrane: 120





Ocena: N/A

Tytuł: Swelter
iMDB: http://www.imdb.com/title/tt2112277/
http://www.filmweb.pl/film/Swelter-2014-681749
http://www.youtube.com/watch?v=kr_WTOYu17s

Produkcja.........................................: USA
Gatunek...........................................: Akcja
Czas trwania......................................: 96 minut
Premiera..........................................: 15 stycznia 2014 (świat)
Reżyseria.........................................: Keith Parmer
Scenariusz........................................: Keith Parmer


OPIS

Czterech zbiegłych więźniów dociera do małego miasteczka w Kalifornii, by odnaleźć dawnego członka ich grupy, który przed laty uniknął kary i uciekł z częścią zrabowanych pieniędzy.

OBSADA

Jean-Claude Van Damme jako Stillman
Josh Henderson jako Boyd
Brad Carter jako Mechanik
Alfred Molina jako Doc
Lennie James jako biskup
Freya Tingley w Londynie
Grant Bowler jako Cole
Catalina Sandino jako Carmen
Abby Miller jako Peaches
Guy Wilson jako Johnny
Courtney Nadzieja w Halle
Peter Vack jak Madsen
Arie Verveen jak wielebny Joshua Kamienia
Richard wybielić jako Tony
Świt Lewis jako Absinthe
Uriah Clevenger
Chris Rene


DANE TECHNICZNE

Format                                   : AVI
Format/Info                              : Audio Video Interleave
File size                                : 915 MiB
Duration                                 : 1h 36mn
Overall bit rate                         : 1 401 Kbps
Movie name                                Swelter.2014.BRRip.XviD.MP3-RARBG
Writing library                          : VirtualDub build 35491/release
Comment                                   Swelter.2014.BRRip.XviD.MP3-RARBG

Video
ID                                       : 0
Format                                   : MPEG-4 Visual
Format profile                           : Simple@L5
Format settings, BVOP                    : No
Format settings, QPel                    : No
Format settings, GMC                     : No warppoints
Format settings, Matrix                  : Default (H.263)
Codec ID                                 : XVID
Codec ID/Hint                            : XviD
Duration                                 : 1h 36mn
Bit rate                                 : 1 196 Kbps
Width                                    : 720 pixels
Height                                   : 300 pixels
Display aspect ratio                     : 2.40:1
Frame rate                               : 25.000 fps
Color space                              : YUV
Chroma subsampling                       : 4:2:0
Bit depth                                : 8 bits
Scan type                                : Progressive
Compression mode                         : Lossy
Bits/(Pixel*Frame)                       : 0.222
Stream size                              : 822 MiB (85%)
Writing library                          : Lavc55.61.100

Audio
ID                                       : 1
Format                                   : AC3 Audio
Format version                           : Version 1
Format profile                           : Layer 3
Mode                                     : Joint stereo
Codec ID                                 : 55
Codec ID/Hint                            : MP3
Duration                                 : 1h 36mn
Bit rate mode                            : Constant
Bit rate                                 : 256 Kbps
Channel(s)                               : 2 channels
Sampling rate                            : 48.0 KHz
Compression mode                         : Lossy
Stream size                              : 132 MiB (14%)
Alignment                                : Aligned on interleaves
Interleave, duration                     : 24 ms (0.60 video frame)
Interleave, preload duration             : 504 ms
Writing library                          : LAME3.99.5
Podobne torrenty
[DivX - XviD] Swelter *2014* [BRRiP. XviD -b53][AC3] [Lektor PL IVO][Z-T]
[DivX - XviD] Swelter *2014* [BRRip.XViD-MORS] [AC3][Napisy PL][Z-T]
[DivX - XviD] Miasto odkupienia - Swelter *2014* [BRRip.XviD-YL4] [Lektor PL]
[DivX - XviD] Miasto odkupienia - Swelter *2014* [480p] [BRRip.XviD-YL4][AC3] [Lektor PL][Z-T]
[DivX - XviD] Miasto odkupienia - Swelter (2014) [480p] [BRRip] [XviD] [AC3-YL4] [Lektor PL]
[RMVB] Miasto odkupienia - Swelter *2014* [BRRip.RMVB-marcinc33] [Lektor PL][Z-T]
[x 264] Miasto odkupienia - Swelter *2014* [BRRip] [x264-Shadow] [AC3] [.mkv] [Lektor PL] [marcinc33]
[x 264] Miasto odkupienia - Swelter *2014* [480p] [BRRip] [x265.AC3-Shadow] [HEVC][Lektor PL]
[DivX - XviD] Miasto odkupienia - Swelter *2014* [DVDRip] [XviD-NN] [Lektor PL]
[DivX - XviD] Miasto odkupienia - Swelter *2014* [720p] [BDRip] [XviD-ELiTE] [Lektor PL]
Szczegóły torrenta
Trackerhttp://94.228.192.98/announce
Multitracker http://94.228.192.98/announce
udp://tracker.publicbt.com:80/announce
http://tracker.immortaltorrent.pl/announce
http://tracker.aletorrenty.pl:2710/announce
http://94.228.192.98/announce
udp://tracker.publicbt.com:80/announce
udp://11.rarbg.me:80/announce

Kategoria:Filmy » DivX - XviD
Dodane19/06/2014 11:06:45
Ostatnie Uaktualnienie19/06/2014 21:11:19
Pokaż/Ukryj pliki:
4 plików
NIKT JESZCZE NIE DODAŁ KOMENTARZA

DODAJ KOMENTARZ
Więcej Emoticon



Wstecz

Żaden z opisanych na stronie plików nie jest przetrzymywany na serwerze. Administrator strony immortaltorrent.pl nie może ponieść konsekwencji prawnych za to co użytkownicy zamieszczają lub piszą na stronie.
Nie możesz używać tego serwisu do rozpowszechniania lub ściągania materiałów do których nie masz odpowiednich praw lub licencji. Użytkownicy zobowiązani są do przestrzeganie tych zasad.
Rejestracja konta jest jednoznaczna z akceptacją zasad.

2017 © immortaltorrent.pl


Najlepsze strony Torrentowe