Torrentów: 138527      Ranga: Gość               Stwórz konto Odzyskiwanie hasła


Kategorie
Filmy
 ⇒ DivX - XviD
 ⇒ RMVB
 ⇒ DVD-R
 ⇒ TV + Seriale
 ⇒ HDTV-HD
 ⇒ VCD - SVCD
 ⇒ x 264
 ⇒  3D
Gry
 ⇒ Gry PC
 ⇒ Gry Konsole
 ⇒ xbox360
Muzyka
 ⇒ Muzyka
 ⇒ Teledyski/Koncerty
Książki - Komiksy
 ⇒ E-Booki + Audio
 ⇒ Komiksy
Inne
 ⇒ XXX
 ⇒ Dla Dzieci
 ⇒ Sport
 ⇒ Pozostałe - Różne
 ⇒ Manga - Anime
 ⇒ GSM - PDA
Aplikacje
 ⇒ Windows
 ⇒ Linux + Macintosh



Detale torrenta

Transporter - Transporter The Series [Sezon 1] [HDTV] [XviD-torentup] [Lektor PL]
Kondycja:
Dodane: 13/10/2015
Rozmiar: 4.11 GB
Uploader: torentup

seed(ów): 5
leecher(ów): 2
Pobrane: 16





Ocena: N/A

Tytuł:Transporter - Transporter: The Series / Sezon 1 [2012] [Epizodów:12]
Ocena: IMDB - 6.6/10 (5.329), Filmweb - 6.5/10 (2.235)
Gatunek: Kryminał, Akcja
Produkcja: Wielka Brytania, Francja, Niemcy, USA, Kanada
Data premiery serialu: 06.12.2012 - Świat
Czas trwania odcinka około 45 min.
Reżyseria: Andy Makita, Bruce McDonald, T.J.Scott i inni
Scenariusz: Luc Besson, Robert Mark Kamen i inni






"Transporter" to remake filmu Luka Bessona z 2002 roku. Frank Martin (Chris Vance) jest byłym komandosem, który pracuje jako nietypowy kurier. Przewozi każdy ładunek w docelowe miejsce, nie zadając przy tym zbędnych pytań. W dojściu do perfekcji pomaga mu przestrzeganie opracowanych przez siebie reguł.



Chris Vance....Frank Martin
Charly Hübner....Dieter Hausmann
Andrea Osvárt....Carla Valeri
François Berl&eacu....Inspektor Tarconi
Delphine Chanéac....Juliette Dubois
Violante Placido....Caterina Boldieu



http://filmweb.pl/serial/Transporter-2012-567233
http://naekranie.pl/seriale/transporter-the-series
http://fdb.pl/film/309284-transporter
http://imdb.com/title/tt1885102
https://pl.wikipedia.org/wiki/Transporter_%28serial_telewizyjny%29



Przykładowy odcinek:
Format                         : AVI
Format/Info                    : Audio Video Interleave
File size                      : 352 MiB
Duration                       : 46mn 13s
Overall bit rate               : 1 064 Kbps
Writing application            : VirtualDubMod 1.5.10.2 (build 2540/release)
Writing library                : VirtualDubMod build 2540/release

Video
ID                             : 0
Format                         : MPEG-4 Visual
Format profile                 : Advanced Simple@L5
Format settings, BVOP          : Yes
Format settings, QPel          : No
Format settings, GMC           : No warppoints
Format settings, Matrix        : Default (H.263)
Codec ID                       : XVID
Codec ID/Hint                  : XviD
Duration                       : 46mn 13s
Bit rate                       : 927 Kbps
Width                          : 640 pixels
Height                         : 352 pixels
Display aspect ratio           : 16:9
Frame rate                     : 25.000 fps
Color space                    : YUV
Chroma subsampling             : 4:2:0
Bit depth                      : 8 bits
Scan type                      : Progressive
Compression mode               : Lossy
Bits/(Pixel*Frame)             : 0.165
Stream size                    : 306 MiB (87%)
Writing library                : XviD 64

Audio
ID                             : 1
Format                         : MPEG Audio
Format version                 : Version 1
Format profile                 : Layer 3
Mode                           : Joint stereo
Codec ID                       : 55
Codec ID/Hint                  : MP3
Duration                       : 46mn 13s
Bit rate mode                  : Constant
Bit rate                       : 128 Kbps
Channel(s)                     : 2 channels
Sampling rate                  : 48.0 KHz
Compression mode               : Lossy
Stream size                    : 42.3 MiB (12%)
Alignment                      : Aligned on interleaves
Interleave, duration           : 40 ms (1.00 video frame)
Interleave, preload duration   : 504 ms

Podobne torrenty
[DivX - XviD] Transporter Nowa moc - The Transporter Refueled *2015* [DVDRip] [XviD-NN] [Lektor PL]
[DivX - XviD] Transporter Nowa moc - The Transporter Refueled *2015* [480p] [BDRip] [XviD] [Ac3-MORS] [Lektor PL]
[RMVB] Transporter The Transporter (2002) [DVDRip.RMVB] [Lektor PL]
[DVD-R] Transporter - The Transporter *2002* [DVD9] [PAL] [Lektor i Napisy PL]
[DivX - XviD] Transporter 1-2 - The Transporter 1-2 *2002-2005* [DVDRip.XviD][Napisy PL]
[DivX - XviD] Transporter - The Transporter *2002* [DVDRip.XviD][PL]alien
[DivX - XviD] Transporter 2 [DVDRip.XviD] [Lektor PL]
[DivX - XviD] Transporter 3 *2008* [DVDRip.XviD] [Lektor PL]
[DivX - XviD] Transporter 2 (2005) [DVDRip.XviD] [Lektor PL]
[DivX - XviD] Transporter 3 *2008* [DVDRip.XviD] [Lektor PL]
Szczegóły torrenta
Trackerhttp://tracker.filetracker.pl:8089/announce
Multitracker http://tracker.filetracker.pl:8089/announce
http://tracker.free-torrents.pl/announce
http://tracker.streettorrent.pl:80/announce
http://tracker.torrenty.org:6969/announce
http://tracker.aletorrenty.pl:2710/announce
http://tracker.pubt.net:2710/announce
http://94.228.192.98/announce
http://www.tlv.cc:7777/announce
http://tracker.torrenty.org:6969/announce
http://retracker.omsk.ru:2710/announce
http://tracker.immortaltorrent.pl/announce
udp://open.demonii.com:1337/announce
http://tracker.best-torrents.net:6969/announce
udp://torrent.gresille.org:80/announce
udp://9.rarbg.me:2710/announce
udp://eddie4.nl:6969/announce
udp://tracker.leechers-paradise.org:6969/announce
udp://tracker4.piratux.com:6969/announce
udp://www.eddie4.nl:6969/announce
udp://open.demonii.com:1337/announce
udp://tracker.openbittorrent.com:80/announce
udp://tracker.publicbt.com:80/announce
udp://ipv4.tracker.harry.lu:80/announce
udp://tracker.publicbt.com/announce
udp://shadowshq.eddie4.nl:6969/announce
udp://9.rarbg.com:2710/announce
udp://11.rarbg.com:80/announce
udp://10.rarbg.com/announce
udp://tracker.istole.it:80/announce
udp://exodus.desync.com:6969
udp://open.demonii.com:1337/announce
udp://tracker.prq.to/announce

Kategoria:Filmy » TV + Seriale
Dodane13/10/2015 23:10:18
Ostatnie Uaktualnienie16/10/2015 12:07:42
Pokaż/Ukryj pliki:
16 plików
NIKT JESZCZE NIE DODAŁ KOMENTARZA

DODAJ KOMENTARZ
Więcej Emoticon



Wstecz

Żaden z opisanych na stronie plików nie jest przetrzymywany na serwerze. Administrator strony immortaltorrent.pl nie może ponieść konsekwencji prawnych za to co użytkownicy zamieszczają lub piszą na stronie.
Nie możesz używać tego serwisu do rozpowszechniania lub ściągania materiałów do których nie masz odpowiednich praw lub licencji. Użytkownicy zobowiązani są do przestrzeganie tych zasad.
Rejestracja konta jest jednoznaczna z akceptacją zasad.

2017 © immortaltorrent.pl


Najlepsze strony Torrentowe