Torrentów: 138518      Ranga: Gość               Stwórz konto Odzyskiwanie hasła


Kategorie
Filmy
 ⇒ DivX - XviD
 ⇒ RMVB
 ⇒ DVD-R
 ⇒ TV + Seriale
 ⇒ HDTV-HD
 ⇒ VCD - SVCD
 ⇒ x 264
 ⇒  3D
Gry
 ⇒ Gry PC
 ⇒ Gry Konsole
 ⇒ xbox360
Muzyka
 ⇒ Muzyka
 ⇒ Teledyski/Koncerty
Książki - Komiksy
 ⇒ E-Booki + Audio
 ⇒ Komiksy
Inne
 ⇒ XXX
 ⇒ Dla Dzieci
 ⇒ Sport
 ⇒ Pozostałe - Różne
 ⇒ Manga - Anime
 ⇒ GSM - PDA
Aplikacje
 ⇒ Windows
 ⇒ Linux + Macintosh



Detale torrenta

Pitbull - Nowe Porządki *2016*[DVDRip] [XviD] [FILM POLSKI]
Kondycja:
Dodane: 09/08/2017
Rozmiar: 1.37 GB
Uploader: Karibu

seed(ów): 1
leecher(ów): 1
Pobrane: 0





Ocena: N/A

..::(Info)::..

Produkcja: Polska,
Gatunek: Dramat, Sensacyjny,
Premiera: 22 stycznia 2016 (Polska), 21 stycznia 2016 (świat)
Reżyseria: Patryk Vega,
Scenariusz: Patryk Vega,

..::(O Filmie)::..

http://www.filmweb.pl/film/Pitbull.+Nowe+porz%C4%85dki-2016-747433
http://www.imdb.com/title/tt5377604/?ref_=nv_sr_3
https://fdb.pl/film/701838-pitbull-nowe-porzadki

..::(Opis)::..

Dariusz "Majami" Wolkowski (Piotr Stramowski) jest policjantem z mokotowskiej komendy. Mężczyzna ma za zadanie schwytać grupę gangsterów. Niebawem okazuje się, że w Warszawie grasuje "Gang obcinaczy palców", a szefem bandy jest Tomasz "Babcia" Barbasiewicz (Bogusław Linda). Wychodzi na jaw, że sekcja zabójstw z Pałacu Mostowskich, w której skład wchodzą Jaces "Gebels" Goc (Andrzej Grabowski), Barszczyk (Michał Kula) i Igor Rosłoń (Paweł Królikowski) rozpracowuje jego grupę. Aby misja się powiodła, obie komendy muszą ze sobą współpracować.

..::(Obsada)::..

★ Piotr Stramowski .... Komisarz Dariusz Wolkowski "Majami"
★ Andrzej Grabowski .... Starszy aspirant Jacek Goc "Gebels"
★ Bogusław Linda .... Tomasz Barbasiewicz "Babcia"
★ Maja Ostaszewska .... Olka
★ Krzysztof Czeczot .... Oskar Niekłański "Zupa"
★ Agnieszka Dygant .... "Kura"
★ Beata Kawka .... Ewa, żona "Babci"
★ Paweł Królikowski .... Igor Rosłoń

..::(Dane Techniczne)::..

Format                      : AVI
Format/Info                 : Audio Video Interleave
File size                   : 1.37 GiB
Duration                    : 2h 6mn
Overall bit rate            : 1 544 Kbps
Writing application         : VirtualDubMod 1.5.10.2 (build 2540/release)
Writing library             : VirtualDubMod build 2540/release

Video
ID                          : 0
Format                      : MPEG-4 Visual
Format profile              : Advanced Simple@L5
Format settings, BVOP       : 2
Format settings, QPel       : No
Format settings, GMC        : No warppoints
Format settings, Matrix     : Default (H.263)
Muxing mode                 : Packed bitstream
Codec ID                    : XVID
Codec ID/Hint               : XviD
Duration                    : 2h 6mn
Bit rate                    : 1 406 Kbps
Width                       : 640 pixels
Height                      : 272 pixels
Display aspect ratio        : 2.35:1
Frame rate                  : 25.000 fps
Color space                 : YUV
Chroma subsampling          : 4:2:0
Bit depth                   : 8 bits
Scan type                   : Progressive
Compression mode            : Lossy
Bits/(Pixel*Frame)          : 0.323
Stream size                 : 1.24 GiB (91%)
Writing library             : XviD 67

Audio
ID                          : 1
Format                      : MPEG Audio
Format version              : Version 1
Format profile              : Layer 3
Mode                        : Joint stereo
Mode extension              : MS Stereo
Codec ID                    : 55
Codec ID/Hint               : MP3
Duration                    : 2h 6mn
Bit rate mode               : Constant
Bit rate                    : 128 Kbps
Channel(s)                  : 2 channels
Sampling rate               : 48.0 KHz
Compression mode            : Lossy
Stream size                 : 116 MiB (8%)
Alignment                   : Aligned on interleaves
Interleave, duration        : 40 ms (1.00 video frame)
Interleave, preload duratio : 504 ms
Podobne torrenty
[DivX - XviD] Pitbull. Nowe porządki [2016] [720p] [BDRip] [XviD-KiT] [Film polski] [dabrjarek]
[DivX - XviD] Pitbull - Nowe porzadki (2016) [DVDRip] [XviD-torentup] [Lektor Polski ]
[DivX - XviD] Sługi boże *2016* [DVDRip] [XviD-NN] [Film Polski]
[DivX - XviD] Smoleńsk *2016* [DVDRip] [XviD-KiT] [Film polski] [zibi6248]
[DivX - XviD] Porady na zdrady (2016) [DVDRip] [Xvid-KiT] [Film polski]
[DivX - XviD] Kobiety bez wstydu (2016) [DVDRip] [Xvid-KiT] [Film Polski]
[DivX - XviD] Super Story *2016* [DVDRip] [XviD-NN] [Film Polski]
[DivX - XviD] Porady na zdrady *2016* [DVDRip] [XviD-KiT] [Film polski] [zibi6248]
[DivX - XviD] Szatan kazał tańczyć *2016* [DVDRip] [XviD-KiT] [Film polski] [zibi6248]
[DivX - XviD] 7 rzeczy, których nie wiecie o facetach 2016 [DVDRip.XviD-torentup][Film Polski]
Szczegóły torrenta
Trackerhttp://tracker.electro-torrent.pl/announce
Multitracker http://tracker.electro-torrent.pl/announce
http://tracker.filetracker.pl:8089/announce
udp://tracker.leechers-paradise.org:6969/announce
http://tracker.torrentyorg.pl/announce
udp://9.rarbg.me:2720/announce
udp://tracker.openbittorrent.com:80/announce
udp://tracker.opentrackr.org:1337/announce

Kategoria:Filmy » DivX - XviD
Dodane09/08/2017 20:08:35
Ostatnie Uaktualnienie09/08/2017 20:06:35
Pokaż/Ukryj pliki:
7 plików
NIKT JESZCZE NIE DODAŁ KOMENTARZA

DODAJ KOMENTARZ
Więcej Emoticon



Wstecz

Żaden z opisanych na stronie plików nie jest przetrzymywany na serwerze. Administrator strony immortaltorrent.pl nie może ponieść konsekwencji prawnych za to co użytkownicy zamieszczają lub piszą na stronie.
Nie możesz używać tego serwisu do rozpowszechniania lub ściągania materiałów do których nie masz odpowiednich praw lub licencji. Użytkownicy zobowiązani są do przestrzeganie tych zasad.
Rejestracja konta jest jednoznaczna z akceptacją zasad.

2017 © immortaltorrent.pl


Najlepsze strony Torrentowe