Torrentów: 134094      Ranga: Gość               Stwórz konto Odzyskiwanie hasła


Kategorie
Filmy
 ⇒ DivX - XviD
 ⇒ RMVB
 ⇒ DVD-R
 ⇒ TV + Seriale
 ⇒ HDTV-HD
 ⇒ VCD - SVCD
 ⇒ x 264
 ⇒  3D
Gry
 ⇒ Gry PC
 ⇒ Gry Konsole
 ⇒ xbox360
Muzyka
 ⇒ Muzyka
 ⇒ Teledyski/Koncerty
Książki - Komiksy
 ⇒ E-Booki + Audio
 ⇒ Komiksy
Inne
 ⇒ XXX
 ⇒ Dla Dzieci
 ⇒ Sport
 ⇒ Pozostałe - Różne
 ⇒ Manga - Anime
 ⇒ GSM - PDA
Aplikacje
 ⇒ Windows
 ⇒ Linux + Macintosh



Detale torrenta

7 rzeczy, których nie wiecie o facetach 2016 [DVDRip.XviD-torentup][Film Polski]
Kondycja:
Dodane: 17/08/2016
Rozmiar: 699.26 MB
Uploader: torentup

seed(ów): 46
leecher(ów): 91
Pobrane: 39





Ocena: N/A

=====================
INFO
================

Gatunek: ............ - Komedia obycz.
Produkcja: .......... - Polska
Premiera: ........... - 26 lutego 2016 (Polska) 23 lutego 2016 (świat)
Czas trwania: ....... - 1 godz. 50 min.
Ocena Filmweb: ...... - 6,0 /10 (11.503) | IMDb - 4,8 /10 (25)
Reżyseria: .......... - Kinga Lewińska
Scenariusz: ......... - Piotr Wereśniak, Kacper Szymański

=====================
OPIS
====================

Siedmiu mężczyzn poszukuje w świecie wielkiej miłości i odrobiny szczęścia. W świecie, w którym niełatwo być prawdziwym facetem i coraz trudniej zorientować się, czego od mężczyzn oczekują kobiety. Filip (Paweł Domagała), sympatyczny roztrzepaniec, właśnie traci pracę, gdy ledwie co poznana Zosia (Aleksandra Hamkało) oznajmia mu, że jest z nim w ciąży. Z kolei jego przyjacielowi Tomaszowi (Mikołaj Roznerski) zawsze wszystko się udaje – narzeczona (w roli Basi – Alicja Bachleda-Curuś) i własny dom już czekają. Gdyby tylko nie ta panika przed poważnym zobowiązaniem… Producent muzyczny i podrywacz Kordian (Maciej Zakościelny) nie planuje jeszcze życiowej stabilizacji – dla niego życie to szaleństwo i stan wiecznego upojenia. Ricky (Zbigniew Zamachowski) – gwiazdor wymagający niezwykle intensywnej opieki – tylko on potrafi wyprowadzić Kordiana z tego stanu. Podczas gdy opuszczony przez żonę kierowca autobusu Stefan (Leszek Lichota) wszelkimi sposobami stara się odzyskać Julię (Dominika Kluźniak), zrozpaczony Jarosław (Piotr Głowacki) cierpi w swojej samotności…

=====================
OBSADA
====================

• Alicja Bachleda Curuś.... - Basia
• Dominika Kluźniak........ - Julia
• Aleksandra Hamkało....... - Zosia
• Zbigniew Zamachowski..... - Ricky
• Maciej Zakościelny....... - Kordian
• Mikołaj Roznerski........ - Tomasz
• Leszek Lichota........... - Stefan
• Piotr Głowacki........... - Jarosław

=====================
DANE TECHNICZNE
=====================

Format                         : AVI
Format/Info                    : Audio Video Interleave
File size                      : 699 MiB
Duration                       : 1h 55mn
Overall bit rate               : 849 Kbps
Writing application            : VirtualDubMod 1.5.10.2 (build 2540/release)
Writing library                : VirtualDubMod build 2540/release

Video
ID                             : 0
Format                         : MPEG-4 Visual
Format profile                 : Advanced Simple@L5
Format settings, BVOP          : 2
Format settings, QPel          : No
Format settings, GMC           : No warppoints
Format settings, Matrix        : Default (H.263)
Muxing mode                    : Packed bitstream
Codec ID                       : XVID
Codec ID/Hint                  : XviD
Duration                       : 1h 55mn
Bit rate                       : 712 Kbps
Width                          : 640 pixels
Height                         : 352 pixels
Display aspect ratio           : 16:9
Frame rate                     : 25.000 fps
Color space                    : YUV
Chroma subsampling             : 4:2:0
Bit depth                      : 8 bits
Scan type                      : Progressive
Compression mode               : Lossy
Bits/(Pixel*Frame)             : 0.126
Stream size                    : 586 MiB (84%)
Writing library                : XviD 67

Audio
ID                             : 1
Format                         : MPEG Audio
Format version                 : Version 1
Format profile                 : Layer 3
Mode                           : Joint stereo
Mode extension                 : MS Stereo
Codec ID                       : 55
Codec ID/Hint                  : MP3
Duration                       : 1h 55mn
Bit rate mode                  : Constant
Bit rate                       : 128 Kbps
Channel(s)                     : 2 channels
Sampling rate                  : 48.0 KHz
Compression mode               : Lossy
Stream size                    : 105 MiB (15%)
Alignment                      : Aligned on interleaves
Interleave, duration           : 40 ms (1.00 video frame)
Interleave, preload duration   : 504 ms

Podobne torrenty
[DivX - XviD] 7 rzeczy, których nie wiecie o facetach (2016) [BDRip.XviD-B89] [Film polski]
[DivX - XviD] Sztos (1997)[DVDRip] [XviD-torentup] [FILM POLSKI]
[DivX - XviD] Moje corki krowy(2015)[DVDRip] [XviD-torentup] [Film Polski]
[DivX - XviD] Pitbull - Nowe porzadki (2016) [DVDRip] [XviD-torentup] [Lektor Polski ]
[DivX - XviD] Excentrycy, czyli po słonecznej stronie ulicy (2015) [DVDRip] [Xvid-torentup] [Film Polski ]
[DivX - XviD] Smoleńsk *2016* [DVDRip] [XviD-KiT] [Film polski] [zibi6248]
[DivX - XviD] Pitbull. Nowe porządki [2016] [720p] [BDRip] [XviD-KiT] [Film polski] [dabrjarek]
[DivX - XviD] Jestem mordercą *2016* [720p] [WEB-DL] [x264-KiT] [Film polski] [zibi6248]
[RMVB] POLSKA KLASYKA - Krótki film o zabijaniu - A Short Film About Killing *1987*[RMVB][DVDRip][Polski]
[Sport] Ceremonia otwarcia UEFA Euro 2016-Opening Ceremony Uefa Euro 2016 [2016] [TVRip] [Xvid-torentup][Lektor PL]
Szczegóły torrenta
Trackerhttp://tracker.filetracker.pl:8089/announce
Multitracker http://tracker.filetracker.pl:8089/announce
http://tracker.free-torrents.pl/announce
http://tracker.streettorrent.pl:80/announce
http://tracker.torrenty.org:6969/announce
http://tracker.aletorrenty.pl:2710/announce
http://tracker.pubt.net:2710/announce
http://94.228.192.98/announce
http://www.tlv.cc:7777/announce
http://retracker.omsk.ru:2710/announce
http://tracker.immortaltorrent.pl/announce
udp://open.demonii.com:1337/announce
http://tracker.best-torrents.net:6969/announce
udp://torrent.gresille.org:80/announce
udp://9.rarbg.me:2710/announce
udp://eddie4.nl:6969/announce
udp://tracker.leechers-paradise.org:6969/announce
udp://tracker4.piratux.com:6969/announce
udp://www.eddie4.nl:6969/announce
udp://tracker.openbittorrent.com:80/announce
udp://tracker.publicbt.com:80/announce
udp://ipv4.tracker.harry.lu:80/announce
udp://tracker.publicbt.com/announce
udp://shadowshq.eddie4.nl:6969/announce
udp://9.rarbg.com:2710/announce
udp://11.rarbg.com:80/announce
udp://10.rarbg.com/announce
udp://tracker.istole.it:80/announce
udp://exodus.desync.com:6969
udp://tracker.prq.to/announce
udp://tracker.openbittorrent.com:80/announce
udp://tracker.publicbt.com:80/announce

Kategoria:Filmy » DivX - XviD
Dodane17/08/2016 16:08:56
Ostatnie Uaktualnienie17/08/2016 18:31:04
Pokaż/Ukryj pliki:
5 plików
NIKT JESZCZE NIE DODAŁ KOMENTARZA

DODAJ KOMENTARZ
Więcej Emoticon



Wstecz

Żaden z opisanych na stronie plików nie jest przetrzymywany na serwerze. Administrator strony immortaltorrent.pl nie może ponieść konsekwencji prawnych za to co użytkownicy zamieszczają lub piszą na stronie.
Nie możesz używać tego serwisu do rozpowszechniania lub ściągania materiałów do których nie masz odpowiednich praw lub licencji. Użytkownicy zobowiązani są do przestrzeganie tych zasad.
Rejestracja konta jest jednoznaczna z akceptacją zasad.

2017 © immortaltorrent.pl


Najlepsze strony Torrentowe