Torrentów: 144130      Ranga: Gosc               Stwórz konto Odzyskiwanie hasła


Kategorie
Filmy
 ⇒ DivX - XviD
 ⇒ RMVB
 ⇒ DVD-R
 ⇒ TV + Seriale
 ⇒ HDTV-HD
 ⇒ VCD - SVCD
 ⇒ x 264
 ⇒  3D
Gry
 ⇒ Gry PC
 ⇒ Gry Konsole
 ⇒ xbox360
Muzyka
 ⇒ Muzyka
 ⇒ Teledyski/Koncerty
Książki - Komiksy
 ⇒ E-Booki + Audio
 ⇒ Komiksy
Inne
 ⇒ XXX
 ⇒ Dla Dzieci
 ⇒ Sport
 ⇒ Pozostałe - Różne
 ⇒ Manga - Anime
 ⇒ GSM - PDA
Aplikacje
 ⇒ Windows
 ⇒ Linux + Macintosh



Detale torrenta

50 Cent - Get Rich or Die Trying
Kondycja:
Dodane: 25/03/2010
Rozmiar: 32.62 MB
Uploader: Anonimowy
seed(ów): 1
leecher(ów): 0
Pobrane: ---





Ocena: N/A

General :-

Complete name                    : 50 Cent - Get Rich or Die Trying - If I can`t- By Sandy.mpg
Format                           : MPEG-PS
File size                        : 32.4 MiB
Duration                         : 3mn 14s
Overall bit rate                 : 1 396 Kbps

Video :-

ID                               : 224 (0xE0)
Format                           : MPEG Video
Format version                   : Version 1
Format settings, BVOP            : Yes
Format settings, Matrix          : Default
Duration                         : 3mn 14s
Bit rate mode                    : Constant
Bit rate                         : 1 117 Kbps
Nominal bit rate                 : 1 150 Kbps
Width                            : 352 pixels
Height                           : 288 pixels
Display aspect ratio             : 4:3
Frame rate                       : 25.000 fps
Resolution                       : 8 bits
Scan type                        : Progressive
Bits/(Pixel*Frame)               : 0.441
Stream size                      : 25.9 MiB (80%)

Audio :-

ID                               : 192 (0xC0)
Format                           : MPEG Audio
Format version                   : Version 1
Format profile                   : Layer 2
Duration                         : 3mn 14s
Bit rate mode                    : Constant
Bit rate                         : 224 Kbps
Channel(s)                       : 2 channels
Sampling rate                    : 44.1 KHz
Stream size                      : 5.21 MiB (16%)

http://i41.tinypic.com/2rh5x84.jpg
Podobne torrenty
[Muzyka] 50 Cent - Get Rich Or Die Tryin (2003) [mp3@320]
[DivX - XviD] Joe Rich powraca - The Return of Joe Rich *2011* [DVDRiP XViD-MX] [LEKTOR PL]
[DivX - XviD] Joe Rich powraca - The Return of Joe Rich *2011* [DVDRip.XviD-MX] [Lektor PL]
[Teledyski/Koncerty] Rich Girl - He Ain't With Me Now
[XXX] The Filthy Rich (1981)
[Muzyka] Big & Rich - Horse Of A Different Color [2004] [MP3]
[Muzyka] John Rich - Son Of A Preacher Man (2009) [mp3@vbr]
[XXX] Kelly - Fucks her Rich Husbands Son
[Muzyka] Big Black - The Rich Man's Eight Track Tape (1987)
[XXX] Rich Bitch Wife Ramona BlackBachelor
Szczegóły torrenta
Trackerhttp://fr33dom.h33t.com:3310/announce
Kategoria:Muzyka » Teledyski/Koncerty
Dodane25/03/2010 06:03:38
Ostatnie Uaktualnienie20/03/2013 10:46:45
NIKT JESZCZE NIE DODAŁ KOMENTARZA

DODAJ KOMENTARZ
Więcej Emoticon



Wstecz

Żaden z opisanych na stronie plików nie jest przetrzymywany na serwerze. Administrator strony immortaltorrent.pl nie może ponieść konsekwencji prawnych za to co użytkownicy zamieszczają lub piszą na stronie.
Nie możesz używać tego serwisu do rozpowszechniania lub ściągania materiałów do których nie masz odpowiednich praw lub licencji. Użytkownicy zobowiązani są do przestrzeganie tych zasad.
Rejestracja konta jest jednoznaczna z akceptacją zasad.

2018 © immortaltorrent.pl


Najlepsze strony Torrentowe