Torrentów: 141490      Ranga: Gosc               Stwórz konto Odzyskiwanie hasła


Kategorie
Filmy
 ⇒ DivX - XviD
 ⇒ RMVB
 ⇒ DVD-R
 ⇒ TV + Seriale
 ⇒ HDTV-HD
 ⇒ VCD - SVCD
 ⇒ x 264
 ⇒  3D
Gry
 ⇒ Gry PC
 ⇒ Gry Konsole
 ⇒ xbox360
Muzyka
 ⇒ Muzyka
 ⇒ Teledyski/Koncerty
Książki - Komiksy
 ⇒ E-Booki + Audio
 ⇒ Komiksy
Inne
 ⇒ XXX
 ⇒ Dla Dzieci
 ⇒ Sport
 ⇒ Pozostałe - Różne
 ⇒ Manga - Anime
 ⇒ GSM - PDA
Aplikacje
 ⇒ Windows
 ⇒ Linux + Macintosh



Detale torrenta

Pasażer/The Commuter (2018) [BDRip 1080p x264 by alE13 AC3][Napisy PL/Eng][Eng]
Kondycja:
Dodane: 10/04/2018
Rozmiar: 7.91 GB
Uploader: alE13

seed(ów): 1
leecher(ów): 3
Pobrane: 0





Ocena: N/A



http://www.imdb.com/title/tt1590193/
http://www.filmweb.pl/film/Pasa%C5%BCer-2018-560109

Plik zawiera Sample.

reżyseria: Jaume Collet-Serra
scenariusz:Byron Willinger, Philip de Blasi
gatunek: Thriller
produkcja:USA, Wielka Brytania
premiera: 10-01-2018
muzyka:Roque Baños
zdjęcia:Paul Cameron
czas:1h  44min

opis:

A businessman is caught up in a criminal conspiracy during his daily commute home.

Historia agenta ubezpieczeniowego, który podróżuje codziennie pociągiem do pracy. Pewnego dnia
zostaje wciągnięty w kryminalną intrygę przez jedną pasażerkę pociągu.

https://i.imgur.com/JG3bzjZ.jpg
https://i.imgur.com/nIdERR2.jpg
https://i.imgur.com/R81fa2j.jpg
https://i.imgur.com/AAMFLYU.jpg

obsada:

Liam Neeson, Sam Neill, Vera Farmiga

dane techniczne:

The Commuter (2018)-alE13.mkv
Format                      : Matroska
Format version              : Version 4 / Version 2
File size                   : 7.86 GiB
Duration                    : 1 h 44 min
Overall bit rate            : 10.7 Mb/s
Movie name                  : The Commuter (2018)-alE13
Encoded date                : UTC 2018-04-10 07:02:32
Writing application         : mkvmerge v8.1.0 ('Psychedelic Postcard') 64bit
Writing library             : libebml v1.3.1 + libmatroska v1.4.2
Cover                       : Yes
Attachments                 : Cover.jpg

Video
ID                          : 1
Format                      : AVC
Format/Info                 : Advanced Video Codec
Format profile              : High@L4.1
Format settings, CABAC      : Yes
Format settings, ReFrames   : 2 frames
Codec ID                    : V_MPEG4/ISO/AVC
Duration                    : 1 h 44 min
Bit rate                    : 10.2 Mb/s
Width                       : 1 920 pixels
Height                      : 808 pixels
Display aspect ratio        : 2.40:1
Frame rate mode             : Constant
Frame rate                  : 23.976 (24000/1001) FPS
Color space                 : YUV
Chroma subsampling          : 4:2:0
Bit depth                   : 8 bits
Scan type                   : Progressive
Bits/(Pixel*Frame)          : 0.274
Stream size                 : 7.39 GiB (94%)
Title                       : The Commuter (2018)-alE13
Writing library             : x264 core 142
Default                     : Yes
Forced                      : No
Color range                 : Limited
Color primaries             : BT.709
Transfer characteristics    : BT.709
Matrix coefficients         : BT.709

Audio
ID                          : 2
Format                      : AC-3
Format/Info                 : Audio Coding 3
Mode extension              : CM (complete main)
Format settings, Endianness : Big
Codec ID                    : A_AC3
Duration                    : 1 h 44 min
Bit rate mode               : Constant
Bit rate                    : 640 kb/s
Channel(s)                  : 6 channels
Channel positions           : Front: L C R, Side: L R, LFE
Sampling rate               : 48.0 kHz
Frame rate                  : 31.250 FPS (1536 spf)
Compression mode            : Lossy
Stream size                 : 480 MiB (6%)
Title                       : The Commuter (2018)-alE13_AC3
Language                    : English
Default                     : No
Forced                      : No

Text #1
ID                          : 3
Format                      : UTF-8
Codec ID                    : S_TEXT/UTF8
Codec ID/Info               : UTF-8 Plain Text
Duration                    : 1 h 37 min
Bit rate                    : 65 b/s
Count of elements           : 1359
Stream size                 : 47.1 KiB (0%)
Title                       : The Commuter (2018)-alE13
Language                    : Polish
Default                     : Yes
Forced                      : Yes

Text #2
ID                          : 4
Format                      : UTF-8
Codec ID                    : S_TEXT/UTF8
Codec ID/Info               : UTF-8 Plain Text
Duration                    : 1 h 37 min
Bit rate                    : 71 b/s
Count of elements           : 1594
Stream size                 : 51.3 KiB (0%)
Title                       : The Commuter (2018)-alE13
Language                    : English
Default                     : No
Forced                      : No

Menu
00:00:00.000                : en:00:00:00.000
00:05:38.255                : en:00:05:38.255
00:12:23.493                : en:00:12:23.493
00:16:54.472                : en:00:16:54.472
00:25:36.118                : en:00:25:36.118
00:32:20.855                : en:00:32:20.855
00:41:37.954                : en:00:41:37.954
00:44:38.217                : en:00:44:38.217
00:52:38.989                : en:00:52:38.989
00:59:30.650                : en:00:59:30.650
01:04:50.845                : en:01:04:50.845
01:11:53.517                : en:01:11:53.517
01:20:23.318                : en:01:20:23.318
01:25:23.160                : en:01:25:23.160
01:30:45.648                : en:01:30:45.648
01:37:26.340                : en:01:37:26.340
Podobne torrenty
[DivX - XviD] Pasażer - The Commuter (2018) [480p] [WEB-DL] [XviD] [AC3-LLA] [NapisyPL] [H1]
[HDTV-HD] Braven (2018)[WEBRip 1080p x264 by alE13 AC3][Napisy PL/Eng][Eng]
[HDTV-HD] Leonard Cohen: Live at the Isle of Wight(1970)-alE13[BDRip 1080p x264 by alE13 AC3/TrueHD/PCM][Napisy PL/Eng][Eng]
[ 3D] Doktor Strange-Doctor Strange (IMAX Edition) 3D (2016)-alE13[BDRip 1080p x264 by alE13 AC3][Dubbing i Napisy PL][Eng]
[HDTV-HD] Gun Shy (2017) [BDRip 1080p x264 by alE13 AC3/DTS][Napisy PL/Eng][Eng]
[HDTV-HD] U-571 (2000)[BDRip 1080p x264 by alE13 AC3/DTS][Lektor i Napisy PL/Eng][Eng]
[HDTV-HD] Cel-Target (1985)[BDRip 1080p x264 by alE13 AC3/DTS][Napisy PL/Eng][Eng]
[HDTV-HD] Rendel (2017)[BDRip 1080p x264 by alE13 AC3][Napisy PL/Eng/Ger][Ger]
[ 3D] Zaoga-Ekipazh 3D (2016)[BDRip 1080p x264 by alE13 AC3][Napisy PL/Eng][Rus]
[HDTV-HD] Check Point (2017) [BDRip 1080p x264 by alE13 AC3/DTS][Napisy PL/Eng][Eng]
Szczegóły torrenta
Trackerhttp://tracker.torrentyorg.pl/announce
Multitracker http://tracker.torrentyorg.pl/announce
udp://p4p.arenabg.ch:1337/announce
udp://tracker.coppersurfer.tk:6969/announce
udp://tracker.leechers-paradise.org:6969/announce
udp://inferno.demonoid.pw:3391/announce
udp://tracker.opentrackr.org:1337/announce
udp://tracker.ilibr.org:80/announce
http://tracker.devil-torrents.pl/announce

Kategoria:Filmy » HDTV-HD
Dodane10/04/2018 09:04:59
Ostatnie Uaktualnienie10/04/2018 09:48:23
Pokaż/Ukryj pliki:
13 plików
NIKT JESZCZE NIE DODAŁ KOMENTARZA

DODAJ KOMENTARZ
Więcej Emoticon



Wstecz

Żaden z opisanych na stronie plików nie jest przetrzymywany na serwerze. Administrator strony immortaltorrent.pl nie może ponieść konsekwencji prawnych za to co użytkownicy zamieszczają lub piszą na stronie.
Nie możesz używać tego serwisu do rozpowszechniania lub ściągania materiałów do których nie masz odpowiednich praw lub licencji. Użytkownicy zobowiązani są do przestrzeganie tych zasad.
Rejestracja konta jest jednoznaczna z akceptacją zasad.

2018 © immortaltorrent.pl


Najlepsze strony Torrentowe