Torrentów: 134086      Ranga: Gość               Stwórz konto Odzyskiwanie hasła


Kategorie
Filmy
 ⇒ DivX - XviD
 ⇒ RMVB
 ⇒ DVD-R
 ⇒ TV + Seriale
 ⇒ HDTV-HD
 ⇒ VCD - SVCD
 ⇒ x 264
 ⇒  3D
Gry
 ⇒ Gry PC
 ⇒ Gry Konsole
 ⇒ xbox360
Muzyka
 ⇒ Muzyka
 ⇒ Teledyski/Koncerty
Książki - Komiksy
 ⇒ E-Booki + Audio
 ⇒ Komiksy
Inne
 ⇒ XXX
 ⇒ Dla Dzieci
 ⇒ Sport
 ⇒ Pozostałe - Różne
 ⇒ Manga - Anime
 ⇒ GSM - PDA
Aplikacje
 ⇒ Windows
 ⇒ Linux + Macintosh



Detale torrenta

Awantura o Basię S01E07 *1995* [TVRip.Xvid-torentup] [AC3] [Film PL]
Kondycja:
Dodane: 08/01/2017
Rozmiar: 159.87 MB
Uploader: torentup

seed(ów): 1
leecher(ów): 0
Pobrane: 0





Ocena: N/A

=====================
INFO
================
produkcja: Polska
gatunek: Dla dzieci, Familijny
reżyseria Kazimierz Tarnas
scenariusz Tomasz Piotrowski, Kazimierz Tarnas
zdjęcia Grzegorz Kędzierski
muzyka Stanislas Syrewicz
czas trwania: 104 min

=====================
OPIS
====================
Piętnastoletnia Basia dowiaduje się, że państwo Olszowscy nie są jej prawdziwymi rodzicami. Dziewczyna pragnie dowiedziec się w jaki sposób trafiła do przybranej rodziny. Poszukiwanie tożsamości będzie przyczyną wielu awantur. W finale zwycięża miłość i przyjaźń.
=====================
OBSADA
====================
Hanna Śleszyńska : Marcysia
Anna Seniuk : Doktorowa Budzisz
Piotr Fronczewski : wujek Olszowski
Gustaw Holoubek : Profesor Somer
Radosław Pazura : aktor
Krzysztof Kowalewski : nauczyciel Geografii
Olgierd Łukaszewicz : Ojciec Basi
Jerzy Zelnik : Gaston Dumauriac
Kazimierz Kaczor : Doktor
Stanisława Celińska : Czerwony Kapelusz
Dorota Chotecka-Pazura : aktorka
Anna Powierza : Kicia
Maria Gładkowska : Stanisława Olszańska
Igor Śmiałowski : profesor Mendelsohn
Nina Roguż : koleżanka Basi

=====================
DANE TECHNICZNE
=====================

Format                         : AVI
Format/Info                    : Audio Video Interleave
File size                      : 148 MiB
Duration                       : 26mn 8s
Overall bit rate               : 790 Kbps

Video
ID                             : 0
Format                         : MPEG-4 Visual
Format settings, BVOP          : Yes
Format settings, QPel          : No
Format settings, GMC           : No warppoints
Format settings, Matrix        : Default (H.263)
Codec ID                       : DIVX
Codec ID/Info                  : Project Mayo
Codec ID/Hint                  : DivX 4
Duration                       : 26mn 8s
Bit rate                       : 673 Kbps
Width                          : 640 pixels
Height                         : 464 pixels
Display aspect ratio           : 1.379
Frame rate                     : 25.000 fps
Color space                    : YUV
Chroma subsampling             : 4:2:0
Bit depth                      : 8 bits
Scan type                      : Progressive
Compression mode               : Lossy
Bits/(Pixel*Frame)             : 0.091
Stream size                    : 126 MiB (85%)

Audio
ID                             : 1
Format                         : MPEG Audio
Format version                 : Version 1
Format profile                 : Layer 3
Codec ID                       : 55
Codec ID/Hint                  : MP3
Duration                       : 26mn 7s
Bit rate mode                  : Constant
Bit rate                       : 112 Kbps
Channel(s)                     : 2 channels
Sampling rate                  : 44.1 KHz
Compression mode               : Lossy
Stream size                    : 20.9 MiB (14%)
Alignment                      : Split accross interleaves
Interleave, duration           : 1000 ms (25.01 video frames)
Podobne torrenty
[TV + Seriale] Awantura o Basię S01E01 *1995* [TVRip.Xvid-torentup] [AC3] [Film PL]
[TV + Seriale] Awantura o Basię S01E02 *1995* [TVRip.Xvid-torentup] [AC3] [Film PL]
[TV + Seriale] Awantura o Basię S01E03 *1995* [TVRip.Xvid-torentup] [AC3] [Film PL]
[TV + Seriale] Awantura o Basię S01E04 *1995* [TVRip.Xvid-torentup] [AC3] [Film PL]
[TV + Seriale] Awantura o Basię S01E05 *1995* [TVRip.Xvid-torentup] [AC3] [Film PL]
[TV + Seriale] Awantura o Basię S01E06 *1995* [TVRip.Xvid-torentup] [AC3] [Film PL]
[TV + Seriale] Awantura o Basię S01E08 *1995* [TVRip.Xvid-torentup] [AC3] [Film PL]
[TV + Seriale] Awantura o Basię S01E09 *1995* [TVRip.Xvid-torentup] [AC3] [Film PL]
[TV + Seriale] Awantura o Basię S01E10 *1995* [TVRip.Xvid-torentup] [AC3] [Film PL]
[TV + Seriale] Awantura o Basię S01E11 *1995* [TVRip.Xvid-torentup] [AC3] [Film PL]
Szczegóły torrenta
Trackerhttp://tracker.filetracker.pl:8089/announce
Multitracker http://tracker.filetracker.pl:8089/announce
http://tracker.free-torrents.pl/announce
http://tracker.streettorrent.pl:80/announce
http://tracker.torrenty.org:6969/announce
http://tracker.aletorrenty.pl:2710/announce
http://tracker.pubt.net:2710/announce
http://94.228.192.98/announce
http://www.tlv.cc:7777/announce
http://retracker.omsk.ru:2710/announce
http://tracker.immortaltorrent.pl/announce
udp://open.demonii.com:1337/announce
http://tracker.best-torrents.net:6969/announce
udp://torrent.gresille.org:80/announce
udp://9.rarbg.me:2710/announce
udp://eddie4.nl:6969/announce
udp://tracker.leechers-paradise.org:6969/announce
udp://tracker4.piratux.com:6969/announce
udp://www.eddie4.nl:6969/announce
udp://tracker.openbittorrent.com:80/announce
udp://tracker.publicbt.com:80/announce
udp://ipv4.tracker.harry.lu:80/announce
udp://tracker.publicbt.com/announce
udp://shadowshq.eddie4.nl:6969/announce
udp://9.rarbg.com:2710/announce
udp://11.rarbg.com:80/announce
udp://10.rarbg.com/announce
udp://tracker.istole.it:80/announce
udp://exodus.desync.com:6969
udp://tracker.prq.to/announce
udp://tracker.openbittorrent.com:80/announce
udp://tracker.publicbt.com:80/announce

Kategoria:Filmy » TV + Seriale
Dodane08/01/2017 05:01:54
Ostatnie Uaktualnienie08/01/2017 05:56:54
Pokaż/Ukryj pliki:
1 plik
NIKT JESZCZE NIE DODAŁ KOMENTARZA

DODAJ KOMENTARZ
Więcej Emoticon



Wstecz

Żaden z opisanych na stronie plików nie jest przetrzymywany na serwerze. Administrator strony immortaltorrent.pl nie może ponieść konsekwencji prawnych za to co użytkownicy zamieszczają lub piszą na stronie.
Nie możesz używać tego serwisu do rozpowszechniania lub ściągania materiałów do których nie masz odpowiednich praw lub licencji. Użytkownicy zobowiązani są do przestrzeganie tych zasad.
Rejestracja konta jest jednoznaczna z akceptacją zasad.

2017 © immortaltorrent.pl


Najlepsze strony Torrentowe