Torrentów: 155409      Ranga: Gosc               Stwórz konto Odzyskiwanie hasła


Kategorie
Filmy
 ⇒ DivX - XviD
 ⇒ RMVB
 ⇒ DVD-R
 ⇒ TV + Seriale
 ⇒ HDTV-HD
 ⇒ VCD - SVCD
 ⇒ x 264
 ⇒  3D
Gry
 ⇒ Gry PC
 ⇒ Gry Konsole
 ⇒ xbox360
Muzyka
 ⇒ Muzyka
 ⇒ Teledyski/Koncerty
Książki - Komiksy
 ⇒ E-Booki + Audio
 ⇒ Komiksy
Inne
 ⇒ XXX
 ⇒ Dla Dzieci
 ⇒ Sport
 ⇒ Pozostałe - Różne
 ⇒ Manga - Anime
 ⇒ GSM - PDA
Aplikacje
 ⇒ Windows
 ⇒ Linux + Macintosh



Detale torrenta

NBA 2009 Playoffs - Bulls vs Celtics - R1G2 [720p.HDTV.x264] [ENG]
Kondycja:
Dodane: 05/05/2009
Rozmiar: 2.18 GB
Uploader: Anonimowy
seed(ów): 0
leecher(ów): 1
Pobrane: 2505





Ocena: N/A

czektek prezentuje:
Relacja z TV TNT meczów ligi NBA 1 rundy playoffs.
Chicago Bulls vs Boston Celtics - R1G2

Video
Format/Info : Advanced Video Codec
Format profile : High@L3.1
Format settings, CABAC : Yes
Format settings, ReFrames : 4 frames
Muxing mode : Container profile=Unknown@3.1
Codec ID : V_MPEG4/ISO/AVC
Bit rate : 2 328 Kbps
Nominal bit rate : 2 380 Kbps
Width : 1 280 pixels
Height : 720 pixels
Display aspect ratio : 16/9
Frame rate : 29.970 fps
Stream size : 1.88 GiB (86%)

Audio
Format : AC-3
Codec ID : A_AC3
Bit rate mode : Constant
Bit rate : 320 Kbps
Channel(s) : 6 channels
Channel positions : Front: L C R, Surround: L R, LFE
Sampling rate : 48.0 KHz
Stream size : 265 MiB (12%)
Podobne torrenty
[Sport] NBA 2009 Playoffs - Bulls vs Celtics - R1G3 [720p.HDTV.x264] [ENG]
[Sport] NBA 2009 Playoffs - Bulls vs Celtics - R1G6 [720p.HDTV.x264] [ENG]
[Sport] NBA 2009 Playoffs - Bulls vs Celtics - R1G7 [720p.HDTV.x264] [ENG]
[Sport] NBA 2009 Playoffs - Bulls vs Celtics - R1G1 [720p.HDTV.x264] [ENG]
[Sport] NBA 2009 Playoffs - Bulls vs Celtics - R1G5 [720p.HDTV.x264] [ENG]
[Sport] NBA 2009 Playoffs - Bulls vs Celtics - R1G4 [720p.HDTV.x264] [ENG]
[Sport] NBA 2009 Playoffs - Lakers vs Jazz - R1G2 [720p.HDTV.x264] [ENG]
[Sport] NBA 2009: Playoffs - Houston at Lakers [720p.HDTV.x264] [ENG]
[Sport] NBA 2009 Playoffs - 76ers vs Magic - R1G1 [720p.HDTV.x264] [ENG]
[Sport] NBA 2009 Playoffs - 76ers vs Magic - R1G4 [720p.HDTV.x264] [ENG]
Szczegóły torrenta
Trackerhttp://inferno.demonoid.com:3411/announce
Kategoria:Inne » Sport
Dodane05/05/2009 13:05:27
Ostatnie Uaktualnienie21/01/2013 11:50:48
NIKT JESZCZE NIE DODAŁ KOMENTARZA

DODAJ KOMENTARZ
Więcej Emoticon



Wstecz

Żaden z opisanych na stronie plików nie jest przetrzymywany na serwerze. Administrator strony immortaltorrent.pl nie może ponieść konsekwencji prawnych za to co użytkownicy zamieszczają lub piszą na stronie.
Nie możesz używać tego serwisu do rozpowszechniania lub ściągania materiałów do których nie masz odpowiednich praw lub licencji. Użytkownicy zobowiązani są do przestrzeganie tych zasad.
Rejestracja konta jest jednoznaczna z akceptacją zasad.

2020 © immortaltorrent.pl


Najlepsze strony Torrentowe