Torrentów: 145890      Ranga: Gosc               Stwórz konto Odzyskiwanie hasła


Kategorie
Filmy
 ⇒ DivX - XviD
 ⇒ RMVB
 ⇒ DVD-R
 ⇒ TV + Seriale
 ⇒ HDTV-HD
 ⇒ VCD - SVCD
 ⇒ x 264
 ⇒  3D
Gry
 ⇒ Gry PC
 ⇒ Gry Konsole
 ⇒ xbox360
Muzyka
 ⇒ Muzyka
 ⇒ Teledyski/Koncerty
Książki - Komiksy
 ⇒ E-Booki + Audio
 ⇒ Komiksy
Inne
 ⇒ XXX
 ⇒ Dla Dzieci
 ⇒ Sport
 ⇒ Pozostałe - Różne
 ⇒ Manga - Anime
 ⇒ GSM - PDA
Aplikacje
 ⇒ Windows
 ⇒ Linux + Macintosh



Detale torrenta

Scooter – Live In Hamburg (2010)
Kondycja:
Dodane: 21/08/2010
Rozmiar: 9.34 GB
Uploader: Anonimowy
seed(ów): 0
leecher(ów): 0
Pobrane: 296





Ocena: N/A

Wykonawca: Scooter
Tytu³: Live In Hamburg
Gatunek: Jumpstyle, Techno
Czas: 1h 35mn

Tracklist:

01. Intro
02. J'adore Hardcore
03. Posse (I Need You On The Floor)
04. The Sound Above My Hair
05. Stuck On Replay
06. Jumping All Over The World
07. The Question Is What Is The Question?
08. Second Skin
09. Clic Clac / Scarborough Reloaded
10. Fire
11. Fuck The Millennium / Call Me Manana
12. Weekend!
13. Bit A Bad Boy
14. One (Always Hardcore)
15. Ti Sento
16. Jump That Rock (Whatever You Want)
17. Nessaja
18. How Much Is The Fish?
19. Maria (I Like It Loud)
20. Endless Summer / Hyper Hyper / Move Your Ass!



Dane Techniczne:

Audio:
Format : AC-3
Format/Info : Audio Coding 3
Codec ID : A_AC3
Duration : 1h 35mn
Bit rate mode : Constant
Bit rate : 640 Kbps
Channel(s) : 6 channels
Channel positions : Front: L C R, Surround: L R, LFE
Sampling rate : 48.0 KHz
Stream size : 439 MiB (5%)
Language : English

Video:
Format : AVC
Format/Info : Advanced Video Codec
Format profile : High@L4.1
Format settings, CABAC : Yes
Format settings, ReFrames : 3 frames
Muxing mode : Container profile=Unknown@4.1
Codec ID : V_MPEG4/ISO/AVC
Duration : 1h 35mn
Bit rate : 12.8 Mbps
Nominal bit rate : 13.1 Mbps
Width : 1 920 pixels
Height : 1 080 pixels
Display aspect ratio : 16:9
Frame rate : 25.000 fps
Resolution : 24 bits
Colorimetry : 4:2:0
Scan type : Progressive
Bits/(Pixel*Frame) : 0.248
Stream size : 8.59 GiB (93%)
Podobne torrenty
[Teledyski/Koncerty] Scooter live Hamburg 06 + 2 videoclips
[Muzyka] Deep Purple – Live In Rzeszow (2010)
[Muzyka] SBB – Live in Prague 1978 [FLAC]
[x 264] Pixies – Live At The Paradise In Boston (2005) [DVD9Rip.x264.AC3]
[ 3D] Scorpions–Live In 3D (Get Your Sting & Blackout)(2011)[BRRip 1080p x264 by alE13 AC3/DTS/PCM][Eng]
[Muzyka] VA – Electro Synth – Mcity Edition (2015) MP3 [320 kbps]
[DivX - XviD] Gabinet Figur Woskowych 1 – 2 –Waxwork 1 - 2 *1988-1992* [DVDRip.XviD] [Lektor PL]
[Muzyka] Vivaldi – Concertos e Sonatas Op1-12 – Scimone (2007)
[Muzyka] U2 – Rome 2010
[Teledyski/Koncerty] Guns N\'Roses: Appetite for Democracy–Live at the Hard Rock Casino, Las Vegas 3D (2014)[BRRip 1080p x264 by alE13 AC3/DTS][Napisy PL/Eng][Eng]
Szczegóły torrenta
Trackerhttp://p2p.arenabg.com:2710/37f3f5c69bdb1cf9e9b6567cf79336b2/announce
Kategoria: » Muzyka
Dodane21/08/2010 09:08:10
Ostatnie Uaktualnienie08/09/2013 12:50:49
NIKT JESZCZE NIE DODAŁ KOMENTARZA

DODAJ KOMENTARZ
Więcej Emoticon



Wstecz

Żaden z opisanych na stronie plików nie jest przetrzymywany na serwerze. Administrator strony immortaltorrent.pl nie może ponieść konsekwencji prawnych za to co użytkownicy zamieszczają lub piszą na stronie.
Nie możesz używać tego serwisu do rozpowszechniania lub ściągania materiałów do których nie masz odpowiednich praw lub licencji. Użytkownicy zobowiązani są do przestrzeganie tych zasad.
Rejestracja konta jest jednoznaczna z akceptacją zasad.

2018 © immortaltorrent.pl


Najlepsze strony Torrentowe