Torrentów: 155410      Ranga: Gosc               Stwórz konto Odzyskiwanie hasła


Kategorie
Filmy
 ⇒ DivX - XviD
 ⇒ RMVB
 ⇒ DVD-R
 ⇒ TV + Seriale
 ⇒ HDTV-HD
 ⇒ VCD - SVCD
 ⇒ x 264
 ⇒  3D
Gry
 ⇒ Gry PC
 ⇒ Gry Konsole
 ⇒ xbox360
Muzyka
 ⇒ Muzyka
 ⇒ Teledyski/Koncerty
Książki - Komiksy
 ⇒ E-Booki + Audio
 ⇒ Komiksy
Inne
 ⇒ XXX
 ⇒ Dla Dzieci
 ⇒ Sport
 ⇒ Pozostałe - Różne
 ⇒ Manga - Anime
 ⇒ GSM - PDA
Aplikacje
 ⇒ Windows
 ⇒ Linux + Macintosh



Detale torrenta

Earth *2006* [HD.720p.h264] [ENG]
Kondycja:
Dodane: 06/05/2009
Rozmiar: 3.87 GB
Uploader: Anonimowy
seed(ów): 162
leecher(ów): 323
Pobrane: 5976





Ocena: N/A

[size=4]czektek prezentuje:[/size]
BBC presents EARTH, super dokument w jako¶ci hd.


Info :
Format/Info : Audio Video Interleave
Format profile : OpenDML
File size : 3.87 GiB
Duration : 1h 39mn
Overall bit rate : 5 584 Kbps

Video
Format : MPEG-4 Visual
Format settings, BVOP : Yes
Format settings, QPel : No
Format settings, GMC : No warppoints
Format settings, Matrix : Default
Codec ID : DX50
Codec ID/Hint : DivX 5
Duration : 1h 39mn
Bit rate : 5 131 Kbps
Width : 1 280 pixels
Height : 720 pixels
Display aspect ratio : 16/9
Frame rate : 23.976 fps
Resolution : 24 bits
Colorimetry : 4:2:0
Scan type : Progressive
Bits/(Pixel*Frame) : 0.232
Stream size : 3.55 GiB (92%)
Writing library : DivX 6.8.0 (UTC 2007-12-04)

Audio
Format : AC-3
Format/Info : Audio Coding 3
Codec ID : 2000
Bit rate mode : Constant
Bit rate : 448 Kbps
Channel(s) : 6 channels
Channel positions : Front: L C R, Surround: L R, LFE
Sampling rate : 48.0 KHz
Stream size : 318 MiB (8%)
Alignment : Aligned on interleaves
Interleave, duration : 64 ms (1.53 video frames)
Interleave, preload duration : 192 ms
powodzenia
czektek
Podobne torrenty
[HDTV-HD] Planet Earth (2006) [720p.HDDVD.x264]
[TV + Seriale] Planeta Ziemia - Planet Earth *2006* [720p.HDDVD.x264] [Napisy PL]
[x 264] Last Holiday (2006) [BDRip.720p.h264] [Rus/Eng]
[x 264] Planet Earth 2006 [BDRip.x264]
[DivX - XviD] Planeta Ziemia - BBC Planet Earth *2006* [DVDRip.XviD]
[TV + Seriale] Planeta Ziemia - BBC Planet Earth *2006* odc 4 [DVDRip.RMVB] [Lektor PL]
[TV + Seriale] Planeta Ziemia - BBC Planet Earth *2006* odc 10 [DVDRip.RMVB] [Lektor PL]
[TV + Seriale] Planeta Ziemia - BBC Planet Earth *2006* odc 3 [DVDRip.RMVB] [Lektor PL]
[TV + Seriale] Planeta Ziemia - BBC Planet Earth *2006* odc 8 [DVDRip.RMVB] [Lektor PL]
[TV + Seriale] Planeta Ziemia - BBC Planet Earth *2006* odc 12 (3/3) [DVDRip.RMVB] [Lektor PL]
Szczegóły torrenta
Trackerhttp://open.tracker.thepiratebay.org/announce
Kategoria:Filmy » HDTV-HD
Dodane06/05/2009 00:05:22
Ostatnie Uaktualnienie21/03/2013 19:29:14
NIKT JESZCZE NIE DODAŁ KOMENTARZA

DODAJ KOMENTARZ
Więcej Emoticon



Wstecz

Żaden z opisanych na stronie plików nie jest przetrzymywany na serwerze. Administrator strony immortaltorrent.pl nie może ponieść konsekwencji prawnych za to co użytkownicy zamieszczają lub piszą na stronie.
Nie możesz używać tego serwisu do rozpowszechniania lub ściągania materiałów do których nie masz odpowiednich praw lub licencji. Użytkownicy zobowiązani są do przestrzeganie tych zasad.
Rejestracja konta jest jednoznaczna z akceptacją zasad.

2020 © immortaltorrent.pl


Najlepsze strony Torrentowe