Torrentów: 137090      Ranga: Gość               Stwórz konto Odzyskiwanie hasła


Kategorie
Filmy
 ⇒ DivX - XviD
 ⇒ RMVB
 ⇒ DVD-R
 ⇒ TV + Seriale
 ⇒ HDTV-HD
 ⇒ VCD - SVCD
 ⇒ x 264
 ⇒  3D
Gry
 ⇒ Gry PC
 ⇒ Gry Konsole
 ⇒ xbox360
Muzyka
 ⇒ Muzyka
 ⇒ Teledyski/Koncerty
Książki - Komiksy
 ⇒ E-Booki + Audio
 ⇒ Komiksy
Inne
 ⇒ XXX
 ⇒ Dla Dzieci
 ⇒ Sport
 ⇒ Pozostałe - Różne
 ⇒ Manga - Anime
 ⇒ GSM - PDA
Aplikacje
 ⇒ Windows
 ⇒ Linux + Macintosh



Detale torrenta

John Wick 2 (2017)[BRRip 1080p x264 by alE13 AC3/TrueHD][Napisy PL/Eng][Eng]
Kondycja:
Dodane: 02/06/2017
Rozmiar: 12.43 GB
Uploader: alE13

seed(ów): 1
leecher(ów): 0
Pobrane: 0





Ocena: N/A



http://www.imdb.com/title/tt4425200/
http://www.filmweb.pl/film/John+Wick+2-2017-741135

Audio TrueHD Atmos 8 ch. w osobnym pliku.
Plik zawiera Sample.


reżyseria: Chad Stahelski
scenariusz: Derek Kolstad
gatunek: Thriller,Akcja
produkcja: USA
premiera:       30-01-2017
muzyka:         Tyler Bates, Joel J. Richard
zdjęcia:        Dan Laustsen
czas:           02:02:22

opis:

After returning to the criminal underworld to repay a debt, John Wick discovers that a large bounty has been put on his life.

Emerytura jest dla mięczaków. John Wick (Keanu Reeves) ledwo rozprawił się w pojedynkę z całą rosyjską mafią i zalał cementem
skrytkę z narzędziami krwawej wendetty, a do jego domu znów pukają kłopoty. Z mroków przeszłości wyłania się włoski mafioso Santino
(Riccardo Scamarcio) i  sącząc espresso, składa bohaterowi propozycję nie do odrzucenia. Zaś John, chociaż wolałby spędzać dnie
na zabawach z psem i pieleniu grządek, musi po raz kolejny przywdziać stylowy garnitur, zarzucić na ramię shotguna i pobić rekord
trupów na minutę. Jak nietrudno się domyślić, będzie to pojedynek z cieniem.

http://i.imgur.com/e2OUNen.jpg
http://i.imgur.com/MrC0OAX.jpg
http://i.imgur.com/qFAl26q.jpg
http://i.imgur.com/Ac2QXZq.jpg

obsada:

Keanu Reeves, Riccardo Scamarcio, Ian McShane

dane techniczne:

Plik: John Wick-Chapter 2 (2017)-alE13_TrueHD 7.1 Atmos.mka

Hash: 010BC23D79D93426
Format: Matroska
Czas: 02:02:22.386
Rozmiar: 4.52 GiB (4855492990)

Audio (0):
Kodek:         (Atmos / TrueHD) Atmos / TrueHD
Format:       Atmos / TrueHD
Kanały:       Object Based / 8 channels
BitRate:       5 223 kb/s
Tytuł:         John Wick: Chapter 2 (2017)-alE13_TrueHD.7.1.Atmos
Język:       English

John Wick-Chapter 2 (2017)-alE13.mkv
Format                      : Matroska
Format version              : Version 4 / Version 2
File size                   : 7.85 GiB
Duration                    : 2 h 2 min
Overall bit rate            : 9 191 kb/s
Movie name                  : John Wick: Chapter 2 (2017)-alE13
Encoded date                : UTC 2017-06-02 09:40:35
Writing application         : mkvmerge v8.1.0 ('Psychedelic Postcard') 64bit
Writing library             : libebml v1.3.1 + libmatroska v1.4.2
Cover                       : Yes
Attachments                 : cover.jpg

Video
ID                          : 1
Format                      : AVC
Format/Info                 : Advanced Video Codec
Format profile              : High@L4.1
Format settings, CABAC      : Yes
Format settings, ReFrames   : 2 frames
Format settings, GOP        : M=3, N=24
Codec ID                    : V_MPEG4/ISO/AVC
Duration                    : 2 h 2 min
Bit rate                    : 8 544 kb/s
Width                       : 1 920 pixels
Height                      : 800 pixels
Display aspect ratio        : 2.40:1
Frame rate mode             : Constant
Frame rate                  : 23.976 (24000/1001) FPS
Color space                 : YUV
Chroma subsampling          : 4:2:0
Bit depth                   : 8 bits
Scan type                   : Progressive
Bits/(Pixel*Frame)          : 0.232
Stream size                 : 7.30 GiB (93%)
Title                       : John Wick-Chapter 2 (2017)-alE13
Writing library             : x264 core 142
Default                     : Yes
Forced                      : No
Color range                 : Limited
Color primaries             : BT.709
Transfer characteristics    : BT.709
Matrix coefficients         : BT.709

Audio
ID                          : 2
Format                      : AC-3
Format/Info                 : Audio Coding 3
Mode extension              : CM (complete main)
Format settings, Endianness : Big
Codec ID                    : A_AC3
Duration                    : 2 h 2 min
Bit rate mode               : Constant
Bit rate                    : 640 kb/s
Channel(s)                  : 6 channels
Channel positions           : Front: L C R, Side: L R, LFE
Sampling rate               : 48.0 kHz
Frame rate                  : 31.250 FPS (1536 spf)
Compression mode            : Lossy
Stream size                 : 560 MiB (7%)
Title                       : John Wick: Chapter 2 (2017)-alE13_AC3
Language                    : English
Default                     : No
Forced                      : No

Text #1
ID                          : 3
Format                      : UTF-8
Codec ID                    : S_TEXT/UTF8
Codec ID/Info               : UTF-8 Plain Text
Duration                    : 1 h 49 min
Bit rate                    : 20 b/s
Count of elements           : 616
Stream size                 : 16.1 KiB (0%)
Title                       : John Wick: Chapter 2 (2017)-alE13
Language                    : Polish
Default                     : Yes
Forced                      : No

Text #2
ID                          : 4
Format                      : UTF-8
Codec ID                    : S_TEXT/UTF8
Codec ID/Info               : UTF-8 Plain Text
Duration                    : 1 h 49 min
Bit rate                    : 21 b/s
Count of elements           : 669
Stream size                 : 17.6 KiB (0%)
Title                       : John Wick: Chapter 2 (2017)-alE13
Language                    : English
Default                     : No
Forced                      : No

Menu
00:00:00.000                : en:00:00:00.000
00:06:31.683                : en:00:06:31.683
00:16:57.934                : en:00:16:57.934
00:26:35.594                : en:00:26:35.594
00:34:38.034                : en:00:34:38.034
00:42:07.817                : en:00:42:07.817
00:48:07.051                : en:00:48:07.051
00:56:41.648                : en:00:56:41.648
01:01:42.782                : en:01:01:42.782
01:10:27.682                : en:01:10:27.682
01:17:15.923                : en:01:17:15.923
01:24:22.640                : en:01:24:22.641
01:32:11.234                : en:01:32:11.234
01:40:01.329                : en:01:40:01.329
01:46:34.763                : en:01:46:34.763
01:54:01.042                : en:01:54:01.042
Podobne torrenty
[HDTV-HD] Na własną rękę-Collateral Damage (2001)[BRRip 1080p x264 by alE13 AC3/TrueHD][Lektor PL/Napisy Eng][Eng]
[HDTV-HD] Szybcy i wściekli 8-The Fate of the Furious (2017)-alE13[BRRip 1080p x264 by alE13 AC3/DTS]Napisy PL/Eng][Eng]
[HDTV-HD] Aftermath (2017)[BRRip 1080p x264 by alE13 AC3][Napisy PL/Eng][Eng]
[HDTV-HD] Ochroniarz-Security (2017)[BRRip 1080p x264 by alE13 AC3/DTS][Napisy PL/Eng/Fre][Eng]
[HDTV-HD] Bunt-Revolt (2017)[BRRip 1080p x264 by alE13 AC3/DTS][Napisy PL/Eng][Eng]
[HDTV-HD] Tożsamość zdrajcy-Unlocked (2017)[BRRip 1080p x264 by alE13 AC3/DTS][Napisy PL/Eng][Eng]
[HDTV-HD] 2Pack:Legenda-All Eyez on Me (2017)[BRRip 1080p x264 by alE13 AC3/DTS][Napisy PL/Eng/Esp][Eng]
[ 3D] Mumia-The Mummy 3D (2017)[BRRip 1080p x264 by alE13 AC3/DTS][Lektor i Napisy PL/Eng][Eng]
[HDTV-HD] Kung Fu Yoga-Gong fu yu jia (2017)[BRRip 1080p x264 by alE13 AC3/DTS][Napisy PL/Eng][Chinese]
[HDTV-HD] Czarny Motyl-Black Butterfly (2017)[BRRip 1080p x264 by alE13 AC3/DTS][Napisy PL/Eng/Fre][Eng/Fre]
Szczegóły torrenta
Trackerhttp://tracker.devil-torrents.pl/announce
Multitracker http://tracker.devil-torrents.pl/announce
http://tracker.torrentyorg.pl/announce
udp://tracker.opentrackr.org:1337/announce
udp://tracker.leechers-paradise.org:6969/announce
udp://tracker.ilibr.org:80/announce
udp://tracker.coppersurfer.tk:6969/announce
udp://p4p.arenabg.ch:1337/announce
udp://inferno.demonoid.pw:3391/announce

Kategoria:Filmy » HDTV-HD
Dodane02/06/2017 19:06:44
Ostatnie Uaktualnienie02/06/2017 19:57:45
Pokaż/Ukryj pliki:
17 plików
NIKT JESZCZE NIE DODAŁ KOMENTARZA

DODAJ KOMENTARZ
Więcej Emoticon



Wstecz

Żaden z opisanych na stronie plików nie jest przetrzymywany na serwerze. Administrator strony immortaltorrent.pl nie może ponieść konsekwencji prawnych za to co użytkownicy zamieszczają lub piszą na stronie.
Nie możesz używać tego serwisu do rozpowszechniania lub ściągania materiałów do których nie masz odpowiednich praw lub licencji. Użytkownicy zobowiązani są do przestrzeganie tych zasad.
Rejestracja konta jest jednoznaczna z akceptacją zasad.

2017 © immortaltorrent.pl


Najlepsze strony Torrentowe