Torrentów: 134061      Ranga: Gość               Stwórz konto Odzyskiwanie hasła


Kategorie
Filmy
 ⇒ DivX - XviD
 ⇒ RMVB
 ⇒ DVD-R
 ⇒ TV + Seriale
 ⇒ HDTV-HD
 ⇒ VCD - SVCD
 ⇒ x 264
 ⇒  3D
Gry
 ⇒ Gry PC
 ⇒ Gry Konsole
 ⇒ xbox360
Muzyka
 ⇒ Muzyka
 ⇒ Teledyski/Koncerty
Książki - Komiksy
 ⇒ E-Booki + Audio
 ⇒ Komiksy
Inne
 ⇒ XXX
 ⇒ Dla Dzieci
 ⇒ Sport
 ⇒ Pozostałe - Różne
 ⇒ Manga - Anime
 ⇒ GSM - PDA
Aplikacje
 ⇒ Windows
 ⇒ Linux + Macintosh



Detale torrenta

Latarnik wg.Edgara Allana Poe-Edgar Allan Poe\'s-Lighthouse Keeper (2016)[BDRip 1080p by alE13 DTS/AC3[Napisy PL][Eng]
Kondycja:
Dodane: 03/01/2017
Rozmiar: 8.11 GB
Uploader: alE13

seed(ów): 4
leecher(ów): 3
Pobrane: 9





Ocena: N/A



http://www.imdb.com/title/tt3181898/
http://www.filmweb.pl/film/Edgar+Allan+Poe%27s+Lighthouse+Keeper-2016-707685

Plik zawiera Sample.

produkcja: USA
data produkcji: 2017
reżyseria: Benjamin Cooper
scenariusz: Carl Edge
gatunek: Horror
zdjęcia:        Adonis Cruz
czas:           1h 29 mn

opis:

Marooned on a remote peninsula and haunted by frightening specters, a young man must confront the grotesque denizens
of the night, or heed the Lighthouse Keeper's cryptic warning to, 'Always keep a light burning!'

Na odległym półwyspie i nawiedzanym nocą przez przerażające zjawy, młody człowiek musi zmierzyć z jego mieszkańcami
i słuchać tajemniczego latarnika, który mówi: "Światło musi się zasze palić"!

http://i.imgur.com/M7pYU7M.jpg
http://i.imgur.com/60fCf2L.jpg
http://i.imgur.com/Yc9TPSR.jpg
http://i.imgur.com/XLrRAKO.jpg

obsada:

Vernon Wells, Matt O'Neill, Rachel Riley

dane techniczne:

Edgar Allan Poe's-Lighthouse Keeper (2016)-alE13.mkv
Format                      : Matroska
Format version              : Version 4 / Version 2
File size                   : 8.05 GiB
Duration                    : 1 h 29 min
Overall bit rate            : 12.9 Mb/s
Movie name                  : Edgar Allan Poe's-Lighthouse Keeper (2016)-alE13
Encoded date                : UTC 2017-01-03 16:51:04
Writing application         : mkvmerge v8.1.0 ('Psychedelic Postcard') 64bit
Writing library             : libebml v1.3.1 + libmatroska v1.4.2
Cover                       : Yes
Attachments                 : cover.jpg

Video
ID                          : 1
Format                      : AVC
Format/Info                 : Advanced Video Codec
Format profile              : High@L4.1
Format settings, CABAC      : Yes
Format settings, ReFrames   : 2 frames
Codec ID                    : V_MPEG4/ISO/AVC
Duration                    : 1 h 29 min
Bit rate                    : 10.8 Mb/s
Width                       : 1 920 pixels
Height                      : 1 080 pixels
Display aspect ratio        : 16:9
Frame rate mode             : Constant
Frame rate                  : 23.976 (24000/1001) FPS
Color space                 : YUV
Chroma subsampling          : 4:2:0
Bit depth                   : 8 bits
Scan type                   : Progressive
Bits/(Pixel*Frame)          : 0.217
Stream size                 : 6.71 GiB (83%)
Title                       : Edgar Allan Poe's-Lighthouse Keeper (2016)-alE13
Writing library             : x264 core 142
Default                     : Yes
Forced                      : No
Color range                 : Limited
Color primaries             : BT.709
Transfer characteristics    : BT.709
Matrix coefficients         : BT.709

Audio #1
ID                          : 2
Format                      : AC-3
Format/Info                 : Audio Coding 3
Mode extension              : CM (complete main)
Format settings, Endianness : Big
Codec ID                    : A_AC3
Duration                    : 1 h 29 min
Bit rate mode               : Constant
Bit rate                    : 640 kb/s
Channel(s)                  : 6 channels
Channel positions           : Front: L C R, Side: L R, LFE
Sampling rate               : 48.0 kHz
Frame rate                  : 31.250 FPS (1536 spf)
Bit depth                   : 16 bits
Compression mode            : Lossy
Stream size                 : 408 MiB (5%)
Title                       : Edgar Allan Poe's-Lighthouse Keeper (2016)-alE13_AC3
Language                    : English
Default                     : No
Forced                      : No

Audio #2
ID                          : 3
Format                      : DTS
Format/Info                 : Digital Theater Systems
Mode                        : 16
Format settings, Endianness : Big
Codec ID                    : A_DTS
Duration                    : 1 h 29 min
Bit rate mode               : Constant
Bit rate                    : 1 509 kb/s
Channel(s)                  : 6 channels
Channel positions           : Front: L C R, Side: L R, LFE
Sampling rate               : 48.0 kHz
Frame rate                  : 93.750 FPS (512 spf)
Bit depth                   : 24 bits
Compression mode            : Lossy
Stream size                 : 962 MiB (12%)
Title                       : Edgar Allan Poe's-Lighthouse Keeper (2016)-alE13_DTS
Language                    : English
Default                     : Yes
Forced                      : No

Text
ID                          : 4
Format                      : UTF-8
Codec ID                    : S_TEXT/UTF8
Codec ID/Info               : UTF-8 Plain Text
Duration                    : 1 h 24 min
Bit rate                    : 19 b/s
Count of elements           : 419
Stream size                 : 12.0 KiB (0%)
Title                       : Edgar Allan Poe's-Lighthouse Keeper (2016)-alE13
Language                    : Polish
Default                     : Yes
Forced                      : No
Podobne torrenty
[HDTV-HD] Księgowy-Accountant (2016)[BDRip 1080p by alE13 DTS/AC3[Napisy PL/Eng][Eng]
[HDTV-HD] Zderzenie-Collide (2016)[BDRip 1080p by alE13 DTS/AC3[Napisy PL/Eng][Eng]
[ 3D] Załoga-Ekipazh 3D (2016)[BDRip 1080p x264 by alE13 AC3][Napisy PL/Eng][Rus]
[HDTV-HD] Zaginiony Trop-Skiptrace (2016)[BDRip 1080p x264 by alE13 AC3][Napisy PL/Eng][Eng]
[HDTV-HD] Zabić Salazara-Killing Salazar (2016)[BDRip 1080p by alE13 AC3][Napisy PL][Eng]
[HDTV-HD] Krwawy Ojciec-Blood Father (2016) [BDRip 1080p x264 by alE13 AC3/DTS]Napisy PL/Eng][Eng]
[x 264] Inferno (2016)[WEBRRip 1080p x264 by alE13 AC3][Napisy PL][Eng]
[HDTV-HD] Ben-Hur(2016)[BRRip 1080p x264 by alE13 AC3/DTS]Napisy PL/England][Eng]
[HDTV-HD] Inferno (2016)[WEBRRip 1080p x264 by alE13 AC3][Napisy PL][Eng]
[x 264] Siedmiu wspaniałych-The Magnificent Seven (2016)[WEBRip 1080p x264 by alE13 AC3][Napisy PL/Eng][Eng]
Szczegóły torrenta
Trackerhttp://auratorrent.pl:8089/announce
Multitracker http://auratorrent.pl:8089/announce
http://pow7.com:80/announce
http://pow7.com/announce
http://tracker.tfile.me/announce
http://retracker.omsk.ru:2710/announce
http://mgtracker.org:2710/announce
udp://tracker.leechers-paradise.org:6969/announce
http://mgtracker.org:2710/announce
http://pow7.com:80/announce
http://pow7.com/announce
http://tracker.torrentyorg.pl/announce
udp://inferno.demonoid.ooo:3392/announce
udp://inferno.demonoid.pw:3393/announce
udp://tracker.coppersurfer.tk:6969/announce

Kategoria:Filmy » HDTV-HD
Dodane03/01/2017 20:01:23
Ostatnie Uaktualnienie11/01/2017 05:26:09
Pokaż/Ukryj pliki:
11 plików
NIKT JESZCZE NIE DODAŁ KOMENTARZA

DODAJ KOMENTARZ
Więcej Emoticon



Wstecz

Żaden z opisanych na stronie plików nie jest przetrzymywany na serwerze. Administrator strony immortaltorrent.pl nie może ponieść konsekwencji prawnych za to co użytkownicy zamieszczają lub piszą na stronie.
Nie możesz używać tego serwisu do rozpowszechniania lub ściągania materiałów do których nie masz odpowiednich praw lub licencji. Użytkownicy zobowiązani są do przestrzeganie tych zasad.
Rejestracja konta jest jednoznaczna z akceptacją zasad.

2017 © immortaltorrent.pl


Najlepsze strony Torrentowe