Torrentów: 146350      Ranga: Gosc               Stwórz konto Odzyskiwanie hasła


Kategorie
Filmy
 ⇒ DivX - XviD
 ⇒ RMVB
 ⇒ DVD-R
 ⇒ TV + Seriale
 ⇒ HDTV-HD
 ⇒ VCD - SVCD
 ⇒ x 264
 ⇒  3D
Gry
 ⇒ Gry PC
 ⇒ Gry Konsole
 ⇒ xbox360
Muzyka
 ⇒ Muzyka
 ⇒ Teledyski/Koncerty
Książki - Komiksy
 ⇒ E-Booki + Audio
 ⇒ Komiksy
Inne
 ⇒ XXX
 ⇒ Dla Dzieci
 ⇒ Sport
 ⇒ Pozostałe - Różne
 ⇒ Manga - Anime
 ⇒ GSM - PDA
Aplikacje
 ⇒ Windows
 ⇒ Linux + Macintosh



Detale torrenta

From Paris with Love (2010) [R5.DVDRip.XviD]
Kondycja:
Dodane: 17/03/2010
Rozmiar: 890.00 MB
Uploader: Anonimowy
seed(ów): 0
leecher(ów): 0
Pobrane: ---





Ocena: N/A


From Paris with Love (2010) R5 DVDRip XviD-MAX

Produkcja.....: Francja
Gatunek.......: Akcja, Szpiegowski
Data premiery.: 2010-02-19 (Polska) , 2010-02-05 (¦wiat)
Re¿yseria.....: Pierre Morel
Scenariusz....: Luc Besson, Adi Hasak
Zdjêcia.......: Michel Abramowicz
Muzyka........: David Buckley
czas trwania..: 92 min.
More..........: http://www.imdb.com/title/tt1179034



M³odemu pracownikowi amerykañskiej ambasady w Pary¿u, Richardowi Stevensowi (Jonathan Rhys-Meyers), na czas niebezpiecznej misji, zostaje przydzielony partner Charlie Wax (John Travolta), który jest amerykañskim agentem tajnych s³u¿b. Jednak nie jest on wymarzonym partnerem Richarda, bo nie tylko traktuje go jak szofera, ale równie¿ stosuje ca³kowicie ró¿ne metody.



John Travolta....................Charlie Wax
Jonathan Rhys Meyers.............James Reece
Kasia Smutniak...................Caroline
Richard Durden...................Ambassador Bennington
Yin Bing.........................M. Wong
Amber Rose Revah.................Nichole
Eric Gordon......................Foreign Minister
Francois Bredon..................The Thug
Chems Dahmani....................Rashid (as Chems Eddine Dahmani)
Sami Darr........................The Pimp
Julien Hagnery...................Chinese Punk
Mostefa Stiti....................Dir Yasin
Rebecca Dayan....................Foreign Minister`s Aide
Michael Vander-Meiren............Airport Security Official
Didier Constant..................Customs Official



Format                           : AVI
Format/Info                      : Audio Video Interleave
Format profile                   : OpenDML
File size                        : 801 MiB
Duration                         : 1h 27mn
Overall bit rate                 : 1 282 Kbps
Writing application              : VirtualDubMod 1.5.10.2 (build 2542/release)
Writing library                  : VirtualDubMod build 2542/release
Original source form             : MAX TORRENTZ
Copyright                        : SIGISMUNT

Video
Format                           : xvid
Codec ID                         : xvid
Duration                         : 1h 27mn
Bit rate                         : 1 150 Kbps
Width                            : 720 pixels
Height                           : 304 pixels
Display aspect ratio             : 2.35:1
Frame rate                       : 25.000 fps
Resolution                       : 24 bits
Bits/(Pixel*Frame)               : 0.210
Stream size                      : 719 MiB (90%)

Audio
ID                               : 1
Format                           : MPEG Audio
Format version                   : Version 1
Format profile                   : Layer 3
Codec ID                         : 55
Codec ID/Hint                    : MP3
Duration                         : 1h 27mn
Bit rate mode                    : Constant
Bit rate                         : 128 Kbps
Channel(s)                       : 2 channels
Sampling rate                    : 48.0 KHz
Resolution                       : 16 bits
Stream size                      : 80.0 MiB (10%)
Alignment                        : Aligned on interleaves
Interleave, duration             : 667 ms (16.69 video frames)
Interleave, preload duration     : 216 ms

Podobne torrenty
[DivX - XviD] From Paris With Love [2010] [DVDRip.XviD]
[DivX - XviD] From Paris With Love 2010 [REPACK.DVDRiP.XViD] [FRENCH]
[DivX - XviD] Pozdrowienia z Pary¿a - From Paris with Love *2010* [DVDRip.XViD] [Lektor PL]
[DivX - XviD] Pozdrowienia z Pary¿a - From Paris With Love *2010* [DVDRip.XviD] [Lektor PL]
[DivX - XviD] Pozdrowienia z Pary¿a - From Paris With Love *2010* [DVDRip] [XviD][AC3] [Lektor PL]
[DivX - XviD] Pozdrowienia z Pary¿a -From Paris with Love *2010*[DVDRip.XViD] [AC3] [Lektor PL] [Z-T]
[DivX - XviD] From Paris With Love 2010 [R5.LiNE.Xvid]
[DivX - XviD] Pozdrowienia z Pary¿a - From Paris with Love (2010) [R5.XviD] [Lektor PL]
[DVD-R] Pozdrowienia z Pary¿a - From Paris with Love *2010* [DVD5] [PAL] [Napisy PL]
[x 264] Pozdrowienia z Pary¿a - From Paris with Love 2010 [BRRip.x264]
Szczegóły torrenta
Trackerhttp://tracker.torrenty.org:6969/announce
Kategoria:Filmy » DivX - XviD
Dodane17/03/2010 08:03:01
Ostatnie Uaktualnienie11/09/2013 10:35:52
NIKT JESZCZE NIE DODAŁ KOMENTARZA

DODAJ KOMENTARZ
Więcej Emoticon



Wstecz

Żaden z opisanych na stronie plików nie jest przetrzymywany na serwerze. Administrator strony immortaltorrent.pl nie może ponieść konsekwencji prawnych za to co użytkownicy zamieszczają lub piszą na stronie.
Nie możesz używać tego serwisu do rozpowszechniania lub ściągania materiałów do których nie masz odpowiednich praw lub licencji. Użytkownicy zobowiązani są do przestrzeganie tych zasad.
Rejestracja konta jest jednoznaczna z akceptacją zasad.

2018 © immortaltorrent.pl


Najlepsze strony Torrentowe