Torrentów: 136538      Ranga: Gość               Stwórz konto Odzyskiwanie hasła


Kategorie
Filmy
 ⇒ DivX - XviD
 ⇒ RMVB
 ⇒ DVD-R
 ⇒ TV + Seriale
 ⇒ HDTV-HD
 ⇒ VCD - SVCD
 ⇒ x 264
 ⇒  3D
Gry
 ⇒ Gry PC
 ⇒ Gry Konsole
 ⇒ xbox360
Muzyka
 ⇒ Muzyka
 ⇒ Teledyski/Koncerty
Książki - Komiksy
 ⇒ E-Booki + Audio
 ⇒ Komiksy
Inne
 ⇒ XXX
 ⇒ Dla Dzieci
 ⇒ Sport
 ⇒ Pozostałe - Różne
 ⇒ Manga - Anime
 ⇒ GSM - PDA
Aplikacje
 ⇒ Windows
 ⇒ Linux + Macintosh



Detale torrenta

Nieustraszona-Mardaani (2014)[BRRip 1080p x264 by alE13 AC3/DTS][Napisy PL/Eng][Hindi]
Kondycja:
Dodane: 10/07/2017
Rozmiar: 11.53 GB
Uploader: alE13

seed(ów): 1
leecher(ów): 0
Pobrane: 0





Ocena: N/A



http://www.imdb.com/title/tt3495000/
http://www.filmweb.pl/film/Nieustraszona-2014-688524

Audio DTS MA/Core w osobnym pliku.
Plik zawiera Sample.


reżyseria: Pradeep Sarkar
scenariusz: Gopi Puthran
gatunek: Dramat,Akcja
produkcja: Indie
premiera: 21-08-2014
muzyka:         Julius Packiam
zdjęcia:        Artur Żurawski
czas:           01:53:19

opis:

A story of Shivani Shivaji Roy, Crime Branch, who sets out to confront the mastermind behind
a child trafficking mafia.

Indie są największym na świecie ośrodkiem handlu ludźmi. Prawie 40 tys. dzieci rocznie pada
ofiarą porwań. Co 8 minut znika w Indiach mała dziewczynka." Shivani Shivaji Roy, starsza
inspektor wydziału kryminalnego policji w Bombaju, wypowiada walkę szefowi kryminalnego
syndykatu handlującego dziećmi, po tym jak porwana i wywieziona z miasta zostaje nastoletnia
Pyari. Pyari jest dla Shivani niczym córka, dlatego w swej bezpardonowej pogoni za dziewczyną
i jej porywaczami inspektor nie waha się zapuścić się w okrutny świat handlu ludźmi, wyzysku,
narkotyków i ogromnych pieniędzy, i rozpoczyna śledztwo, które na zawsze zmieni jej życie.
Zaczyna się gra między nieustraszoną policjantką, a młodym i bezwzględnym szefem mafii. Zaczyna
się wojna o honor, wojna, która dla Shivani jest sprawą osobistą.

http://i.imgur.com/rQ6YyNr.jpg
http://i.imgur.com/wv1hHvz.jpg
http://i.imgur.com/1yOcpV2.jpg
http://i.imgur.com/OKdsV2m.jpg

obsada:

Rani Mukerji, Tahir Raj Bhasin, Priyanka Sharma

dane techniczne:

audio:

Mardaani (2014)-alE13_DTS_MA.mka

Hash: C47FCC7B83FDAEFA
Format: Matroska
Czas: 01:53:19.520
Rozmiar: 3.51 GiB (3770021074)

Audio (0):
Kodek:         (DTS-HD) DTS-HD
Format:       DTS
Kanały:       6 channels
BitRate:       4 434 kb/s / 1 509 kb/s
Język:       Hindi

movie:

Mardaani (2014)-alE13.mkv
Format                      : Matroska
Format version              : Version 4 / Version 2
File size                   : 7.97 GiB
Duration                    : 1 h 53 min
Overall bit rate            : 10.1 Mb/s
Movie name                  : Mardaani (2014)-alE13
Encoded date                : UTC 2017-07-10 02:07:49
Writing application         : mkvmerge v8.1.0 ('Psychedelic Postcard') 64bit
Writing library             : libebml v1.3.1 + libmatroska v1.4.2
Cover                       : Yes
Attachments                 : cover.jpg

Video
ID                          : 1
Format                      : AVC
Format/Info                 : Advanced Video Codec
Format profile              : High@L4.1
Format settings, CABAC      : Yes
Format settings, ReFrames   : 2 frames
Format settings, GOP        : M=3, N=24
Codec ID                    : V_MPEG4/ISO/AVC
Duration                    : 1 h 53 min
Bit rate                    : 9 401 kb/s
Width                       : 1 920 pixels
Height                      : 816 pixels
Display aspect ratio        : 2.35:1
Frame rate mode             : Constant
Frame rate                  : 24.000 FPS
Color space                 : YUV
Chroma subsampling          : 4:2:0
Bit depth                   : 8 bits
Scan type                   : Progressive
Bits/(Pixel*Frame)          : 0.250
Stream size                 : 7.45 GiB (93%)
Title                       : Mardaani (2014)-alE13
Writing library             : x264 core 142
Default                     : Yes
Forced                      : No
Color range                 : Limited
Color primaries             : BT.709
Transfer characteristics    : BT.709
Matrix coefficients         : BT.709

Audio
ID                          : 2
Format                      : AC-3
Format/Info                 : Audio Coding 3
Mode extension              : CM (complete main)
Format settings, Endianness : Big
Codec ID                    : A_AC3
Duration                    : 1 h 53 min
Bit rate mode               : Constant
Bit rate                    : 640 kb/s
Channel(s)                  : 6 channels
Channel positions           : Front: L C R, Side: L R, LFE
Sampling rate               : 48.0 kHz
Frame rate                  : 31.250 FPS (1536 spf)
Compression mode            : Lossy
Stream size                 : 519 MiB (6%)
Title                       : Mardaani (2014)-alE13_AC3
Language                    : Hindi
Default                     : Yes
Forced                      : No

Text #1
ID                          : 3
Format                      : PGS
Muxing mode                 : zlib
Codec ID                    : S_HDMV/PGS
Codec ID/Info               : Picture based subtitle format used on BDs/HD-DVDs
Duration                    : 1 h 48 min
Bit rate                    : 15.8 kb/s
Count of elements           : 3340
Stream size                 : 12.2 MiB (0%)
Title                       : Mardaani (2014)-alE13
Language                    : English
Default                     : No
Forced                      : No

Text #2
ID                          : 4
Format                      : UTF-8
Codec ID                    : S_TEXT/UTF8
Codec ID/Info               : UTF-8 Plain Text
Duration                    : 1 h 49 min
Bit rate                    : 67 b/s
Count of elements           : 1675
Stream size                 : 54.2 KiB (0%)
Title                       : Mardaani (2014)-alE13
Language                    : Polish
Default                     : Yes
Forced                      : No

Menu
00:00:00.000                : en:Chapter 1
00:07:04.458                : en:Chapter 2
00:12:14.583                : en:Chapter 3
00:18:18.416                : en:Chapter 4
00:23:40.708                : en:Chapter 5
00:29:43.833                : en:Chapter 6
00:39:57.500                : en:Chapter 7
00:42:05.416                : en:Chapter 8
00:49:58.000                : en:Chapter 9
00:57:24.666                : en:Chapter 10
01:03:28.916                : en:Chapter 11
01:12:14.041                : en:Chapter 12
01:20:13.083                : en:Chapter 13
01:23:15.250                : en:Chapter 14
01:31:08.458                : en:Chapter 15
01:37:44.625                : en:Chapter 16
01:45:13.333                : en:Chapter 17
01:49:43.375                : en:Chapter 18

Podobne torrenty
[HDTV-HD] Szybcy i wściekli 8-The Fate of the Furious (2017)-alE13[BRRip 1080p x264 by alE13 AC3/DTS]Napisy PL/Eng][Eng]
[HDTV-HD] Shpongle: Live at Red Rocks (2014)[BRRip 1080p x264 by alE13 AC3/DTS][Eng]
[HDTV-HD] Ben-Hur(2016)[BRRip 1080p x264 by alE13 AC3/DTS]Napisy PL/England][Eng]
[HDTV-HD] The Hike (2011)[BRRip 1080p x264 by alE13 AC3/DTS][Napisy PL/Ger][Eng]
[HDTV-HD] Popeye (1980)[BRRip 1080p x264 by alE13 AC3][Napisy PL/Eng][Eng]
[HDTV-HD] Aftermath (2017)[BRRip 1080p x264 by alE13 AC3][Napisy PL/Eng][Eng]
[HDTV-HD] Grandview, U.S.A. (1984)[BRRip 1080p x264 by alE13 AC3/DTS][Napisy PL/Eng][Eng]
[HDTV-HD] Daylight\'s End (2016)[BRRip 1080p x264 by alE13 AC3][Napisy PL][Eng]
[HDTV-HD] Coś-The Thing (1982)[BRRip 1080p x264 by alE13 AC3][Lektor i Napisy PL/Eng][Eng]
[HDTV-HD] Gladiator(2000)[BRRip 1080p x264 by alE13 AC3][Lektor i Napisy PL/Eng][Eng]
Szczegóły torrenta
Trackerhttp://tracker.devil-torrents.pl/announce
Multitracker http://tracker.devil-torrents.pl/announce
http://tracker.torrentyorg.pl/announce
udp://tracker.opentrackr.org:1337/announce
udp://tracker.leechers-paradise.org:6969/announce
udp://tracker.ilibr.org:80/announce
udp://tracker.coppersurfer.tk:6969/announce
udp://p4p.arenabg.ch:1337/announce
udp://inferno.demonoid.pw:3391/announce

Kategoria:Filmy » HDTV-HD
Dodane10/07/2017 04:07:30
Ostatnie Uaktualnienie10/07/2017 04:33:30
Pokaż/Ukryj pliki:
14 plików
NIKT JESZCZE NIE DODAŁ KOMENTARZA

DODAJ KOMENTARZ
Więcej Emoticon



Wstecz

Żaden z opisanych na stronie plików nie jest przetrzymywany na serwerze. Administrator strony immortaltorrent.pl nie może ponieść konsekwencji prawnych za to co użytkownicy zamieszczają lub piszą na stronie.
Nie możesz używać tego serwisu do rozpowszechniania lub ściągania materiałów do których nie masz odpowiednich praw lub licencji. Użytkownicy zobowiązani są do przestrzeganie tych zasad.
Rejestracja konta jest jednoznaczna z akceptacją zasad.

2017 © immortaltorrent.pl


Najlepsze strony Torrentowe