Torrentów: 143274      Ranga: Gosc               Stwórz konto Odzyskiwanie hasła


Kategorie
Filmy
 ⇒ DivX - XviD
 ⇒ RMVB
 ⇒ DVD-R
 ⇒ TV + Seriale
 ⇒ HDTV-HD
 ⇒ VCD - SVCD
 ⇒ x 264
 ⇒  3D
Gry
 ⇒ Gry PC
 ⇒ Gry Konsole
 ⇒ xbox360
Muzyka
 ⇒ Muzyka
 ⇒ Teledyski/Koncerty
Książki - Komiksy
 ⇒ E-Booki + Audio
 ⇒ Komiksy
Inne
 ⇒ XXX
 ⇒ Dla Dzieci
 ⇒ Sport
 ⇒ Pozostałe - Różne
 ⇒ Manga - Anime
 ⇒ GSM - PDA
Aplikacje
 ⇒ Windows
 ⇒ Linux + Macintosh



Detale torrenta

Eskorta Porucznika/The Ottoman Lieutenant (2017)[BRRip 1080p x264 by alE13 AC3/DTS][Lektor i Napisy PL][Eng]
Kondycja:
Dodane: 11/07/2018
Rozmiar: 8.77 GB
Uploader: alE13

seed(ów): 0
leecher(ów): 0
Pobrane: 0





Ocena: N/A



https://www.imdb.com/title/tt4943322/
https://www.filmweb.pl/film/Eskorta+porucznika-2017-778133

Audio DTS w osobnym pliku.
Plik zawiera sample.


reżyseria: Joseph Ruben
scenariusz: Jeff Stockwell
gatunek: Dramat,Wojenny
produkcja: Turcja,USA
premiera: 10-03-2017
muzyka:         Zanelli
zdjęcia:        Daniel Aranyó
czas:           1h 50min

opis:

The Ottoman Lieutenant is a love story between an idealistic American nurse and a Turkish
officer in World War I.

Eskorta porucznika to historia miłosna między idealistyczną amerykańską pielęgniarką a tureckim
oficerem podczas I wojny światowej.

http://i.imgur.com/YDIFqDt.jpg
http://i.imgur.com/NFUhRVE.jpg
http://i.imgur.com/QkX4qh9.jpg
http://i.imgur.com/1024gR6.jpg

obsada:

Michiel Huisman, Hera Hilmar, Josh Hartnett

dane techniczne:

The Ottoman Lieutenant (2017)-alE13.mkv
Format                      : Matroska
Format version              : Version 4 / Version 2
File size                   : 7.54 GiB
Duration                    : 1 h 50 min
Overall bit rate            : 9 768 kb/s
Movie name                  : The Ottoman Lieutenant (2017)-alE13
Encoded date                : UTC 2018-07-11 05:51:21
Writing application         : mkvmerge v8.1.0 ('Psychedelic Postcard') 64bit
Writing library             : libebml v1.3.1 + libmatroska v1.4.2
Cover                       : Yes
Attachments                 : Cover.jpg

Video
ID                          : 1
Format                      : AVC
Format/Info                 : Advanced Video Codec
Format profile              : High@L4.1
Format settings             : CABAC / 2 Ref Frames
Format settings, CABAC      : Yes
Format settings, ReFrames   : 2 frames
Codec ID                    : V_MPEG4/ISO/AVC
Duration                    : 1 h 50 min
Bit rate                    : 9 428 kb/s
Width                       : 1 920 pixels
Height                      : 800 pixels
Display aspect ratio        : 2.40:1
Frame rate mode             : Constant
Frame rate                  : 23.976 (24000/1001) FPS
Color space                 : YUV
Chroma subsampling          : 4:2:0
Bit depth                   : 8 bits
Scan type                   : Progressive
Bits/(Pixel*Frame)          : 0.256
Stream size                 : 7.00 GiB (93%)
Writing library             : x264 core 142
Default                     : Yes
Forced                      : No
Color range                 : Limited
Color primaries             : BT.709
Transfer characteristics    : BT.709
Matrix coefficients         : BT.709

Audio #1
ID                          : 2
Format                      : AC-3
Format/Info                 : Audio Coding 3
Codec ID                    : A_AC3
Duration                    : 1 h 50 min
Bit rate mode               : Constant
Bit rate                    : 448 kb/s
Channel(s)                  : 6 channels
Channel positions           : Front: L C R, Side: L R, LFE
Sampling rate               : 48.0 kHz
Frame rate                  : 31.250 FPS (1536 SPF)
Bit depth                   : 16 bits
Compression mode            : Lossy
Stream size                 : 354 MiB (5%)
Title                       : The Ottoman Lieutenant (2017)-alE13_AC3
Language                    : English
Service kind                : Complete Main
Default                     : No
Forced                      : No

Audio #2
ID                          : 3
Format                      : AC-3
Format/Info                 : Audio Coding 3
Codec ID                    : A_AC3
Duration                    : 1 h 50 min
Bit rate mode               : Constant
Bit rate                    : 256 kb/s
Channel(s)                  : 2 channels
Channel positions           : Front: L R
Sampling rate               : 48.0 kHz
Frame rate                  : 31.250 FPS (1536 SPF)
Bit depth                   : 16 bits
Compression mode            : Lossy
Stream size                 : 202 MiB (3%)
Title                       : The Ottoman Lieutenant (2017)-alE13_AC3
Service kind                : Complete Main
Default                     : Yes
Forced                      : No

Text
ID                          : 4
Format                      : UTF-8
Codec ID                    : S_TEXT/UTF8
Codec ID/Info               : UTF-8 Plain Text
Duration                    : 1 h 42 min
Bit rate                    : 32 b/s
Count of elements           : 702
Stream size                 : 24.2 KiB (0%)
Title                       : The Ottoman Lieutenant (2017)-alE13
Default                     : No
Forced                      : No

Menu
00:00:00.000                : en:Chapter 01
00:09:08.089                : en:Chapter 02
00:18:03.373                : en:Chapter 03
00:23:44.381                : en:Chapter 04
00:32:11.387                : en:Chapter 05
00:44:42.554                : en:Chapter 06
00:52:37.279                : en:Chapter 07
00:59:14.592                : en:Chapter 08
01:08:24.058                : en:Chapter 09
01:18:09.685                : en:Chapter 10
01:26:48.870                : en:Chapter 11
01:34:48.808                : en:Chapter 12
01:43:37.377                : en:Chapter 13

Podobne torrenty
[HDTV-HD] Eskorta porucznika - Osmanli Subayi - The Ottoman Lieutenant *2017* [720p] [BluRay] [x264] [AC3-KiT] [Lektor PL] [zibi6248]
[DivX - XviD] Eskorta porucznika - Osmanli Subayi - The Ottoman Lieutenant (2017) [720p] [BDRip] [XviD] [AC3-H1] [Lektor PL]
[HDTV-HD] Szybcy i wciekli 8-The Fate of the Furious (2017)-alE13[BRRip 1080p x264 by alE13 AC3/DTS]Napisy PL/Eng][Eng]
[HDTV-HD] Zabi Gunthera-Killing Gunther (2017)-alE13[BRRip 1080p x264 by alE13 AC3/DTS][Napisy PL/Eng][Eng]
[ 3D] Mumia-The Mummy 3D (2017)[BRRip 1080p x264 by alE13 AC3/DTS][Lektor i Napisy PL/Eng][Eng]
[HDTV-HD] Resident Evil: Vendetta (2017)[BRRip 1080p x264 by alE13 AC3/DTS][Lektor i Napisy PL/Eng][Eng]
[ 3D] Blade Runner 2049 3D (2017)[BRRip 1080p x264 by alE13 AC3][Lektor i Napisy PL/Eng][Eng]
[ 3D] xXx: Reaktywacja-xXx: Return of Xander Cage 3D (2017)[BRRip 1080p x264 by alE13 AC3/DTS][Lektor i Napisy PL/Eng][Eng]
[HDTV-HD] Bakaska Vendetta-Kill\'em All (2017)[BRRip 1080p x264 by alE13 AC3/DTS][Lektor i Napisy PL & Multi][Eng]
[ 3D] Wojna o planet map-War for the Planet of the Apes 3D (2017)[BRRip 1080p x264 by alE13 DTS/AC3][Lektor i Napisy PL/Eng/Multi][Eng]
Szczegóły torrenta
Trackerudp://tracker.openbittorrent.com:80/announce
Multitracker udp://tracker.openbittorrent.com:80/announce
udp://tracker.publicbt.com:80/announce

Kategoria:Filmy » HDTV-HD
Dodane11/07/2018 09:07:18
Ostatnie Uaktualnienie17/07/2018 00:22:03
Pokaż/Ukryj pliki:
17 plików
NIKT JESZCZE NIE DODAŁ KOMENTARZA

DODAJ KOMENTARZ
Więcej Emoticon



Wstecz

Żaden z opisanych na stronie plików nie jest przetrzymywany na serwerze. Administrator strony immortaltorrent.pl nie może ponieść konsekwencji prawnych za to co użytkownicy zamieszczają lub piszą na stronie.
Nie możesz używać tego serwisu do rozpowszechniania lub ściągania materiałów do których nie masz odpowiednich praw lub licencji. Użytkownicy zobowiązani są do przestrzeganie tych zasad.
Rejestracja konta jest jednoznaczna z akceptacją zasad.

2018 © immortaltorrent.pl


Najlepsze strony Torrentowe