Torrentów: 134352      Ranga: Go¶ć               Stwórz konto Odzyskiwanie hasła


Kategorie
Filmy
 ⇒ DivX - XviD
 ⇒ RMVB
 ⇒ DVD-R
 ⇒ TV + Seriale
 ⇒ HDTV-HD
 ⇒ VCD - SVCD
 ⇒ x 264
 ⇒  3D
Gry
 ⇒ Gry PC
 ⇒ Gry Konsole
 ⇒ xbox360
Muzyka
 ⇒ Muzyka
 ⇒ Teledyski/Koncerty
Ksi±żki - Komiksy
 ⇒ E-Booki + Audio
 ⇒ Komiksy
Inne
 ⇒ XXX
 ⇒ Dla Dzieci
 ⇒ Sport
 ⇒ Pozostałe - Różne
 ⇒ Manga - Anime
 ⇒ GSM - PDA
Aplikacje
 ⇒ Windows
 ⇒ Linux + Macintosh



Detale torrenta

Excentrycy, czyli po słonecznej stronie ulicy (2015) [DVDRip] [Xvid-torentup] [Film Polski ]
Kondycja:
Dodane: 10/08/2016
Rozmiar: 699.26 MB
Uploader: torentup

seed(ów): 1
leecher(ów): 10
Pobrane: 0





Ocena: N/A

=====================
INFO
================

Gatunek: Komedia
Produkcja: Polska
Premiera: 15 stycznia 2016 (Polska) 16 wrze¶nia 2015 (¶wiat)
Reżyseria: Janusz Majewski
Scenariusz: Janusz Majewski, Włodzimierz Kowalewski

=====================
OPIS
====================

"Excentrycy" to niezwykła historia jazzmana (Maciej Stuhr), który u schyłku lat 50-tych XX wieku powraca z Anglii do Polski. Wraz z grup± ekscentrycznych muzyków zakłada swingowy big-band. Gwiazd± zespołu zostaje Modesta (Natalia Rybicka), wspólnie odnosz± wielki sukces. Muzyk szybko traci głowę dla uwodzicielskiej ?i tajemniczej femme fatale. Wkrótce zaczyna ich ł±czyć gor±cy romans. Jako "Król ?i Królowa swingu" ruszaj± w trasę koncertow± po Polsce, a ich życie zaczyna przypominać hollywoodzki film. Czy uczucie okaże się prawdziwe?

=====================
OBSADA
====================

Maciej Stuhr............. - Fabian Apanowicz
Sonia Bohosiewicz........ - Wanda Apanowicz-Patras
Natalia Rybicka.......... - Modesta Nowak
Anna Dymna............... - Bayerowa
Wojciech Pszoniak........ - Felicjan Zuppe
Wiktor Zborowski......... - Stypa
Marian Dziędziel........ - Towarzysz Kusiak
Adam Ferency............. - Habertas

=====================
DANE TECHNICZNE
=====================

Format                         : AVI
Format/Info                    : Audio Video Interleave
File size                      : 699 MiB
Duration                       : 1h 47mn
Overall bit rate               : 907 Kbps
Writing application            : VirtualDubMod 1.5.10.2 (build 2540/release)
Writing library                : VirtualDubMod build 2540/release

Video
ID                             : 0
Format                         : MPEG-4 Visual
Format profile                 : Advanced Simple@L5
Format settings, BVOP          : 2
Format settings, QPel          : No
Format settings, GMC           : No warppoints
Format settings, Matrix        : Default (H.263)
Muxing mode                    : Packed bitstream
Codec ID                       : XVID
Codec ID/Hint                  : XviD
Duration                       : 1h 47mn
Bit rate                       : 769 Kbps
Width                          : 640 pixels
Height                         : 272 pixels
Display aspect ratio           : 2.35:1
Frame rate                     : 25.000 fps
Color space                    : YUV
Chroma subsampling             : 4:2:0
Bit depth                      : 8 bits
Scan type                      : Progressive
Compression mode               : Lossy
Bits/(Pixel*Frame)             : 0.177
Stream size                    : 593 MiB (85%)
Writing library                : XviD 67

Audio
ID                             : 1
Format                         : MPEG Audio
Format version                 : Version 1
Format profile                 : Layer 3
Mode                           : Joint stereo
Mode extension                 : MS Stereo
Codec ID                       : 55
Codec ID/Hint                  : MP3
Duration                       : 1h 47mn
Bit rate mode                  : Constant
Bit rate                       : 128 Kbps
Channel(s)                     : 2 channels
Sampling rate                  : 48.0 KHz
Compression mode               : Lossy
Stream size                    : 98.7 MiB (14%)
Alignment                      : Aligned on interleaves
Interleave, duration           : 40 ms (1.00 video frame)
Interleave, preload duration   : 504 ms



Podobne torrenty
[Muzyka] EXCENTRYCY CZYLI PO SŁONECZNEJ STRONIE ULICY (2015) [WMA] [FALLEN ANGEL]
[DivX - XviD] Moje corki krowy(2015)[DVDRip] [XviD-torentup] [Film Polski]
[DivX - XviD] Sztos (1997)[DVDRip] [XviD-torentup] [FILM POLSKI]
[DivX - XviD] 7 rzeczy, których nie wiecie o facetach 2016 [DVDRip.XviD-torentup][Film Polski]
[DivX - XviD] Chemia 2015 [DVDRip] [XviD-KiT] [Film polski]
[DivX - XviD] Anatomia zła *2015* [DVDRip] [XviD-NN] [Film Polski]
[DivX - XviD] Karbala *2015* [DVDRip] [XviD-NN] [Film Polski]
[TV + Seriale] Sensacje XX Wieku - Szabla Polski *2015* [720p] [HDTV] [FILM POLSKI] - tomeks
[DivX - XviD] Ziarno prawdy 2015 [DVDRip] [XviD-KiT] [Film polski]
[DivX - XviD] Król życia 2015 [DVDRip.XviD-KiT] [Film Polski]
Szczegóły torrenta
Trackerhttp://tracker.filetracker.pl:8089/announce
Multitracker http://tracker.filetracker.pl:8089/announce
http://tracker.free-torrents.pl/announce
http://tracker.streettorrent.pl:80/announce
http://tracker.torrenty.org:6969/announce
http://tracker.aletorrenty.pl:2710/announce
http://tracker.pubt.net:2710/announce
http://94.228.192.98/announce
http://www.tlv.cc:7777/announce
http://retracker.omsk.ru:2710/announce
http://tracker.immortaltorrent.pl/announce
udp://open.demonii.com:1337/announce
http://tracker.best-torrents.net:6969/announce
udp://torrent.gresille.org:80/announce
udp://9.rarbg.me:2710/announce
udp://eddie4.nl:6969/announce
udp://tracker.leechers-paradise.org:6969/announce
udp://tracker4.piratux.com:6969/announce
udp://www.eddie4.nl:6969/announce
udp://tracker.openbittorrent.com:80/announce
udp://tracker.publicbt.com:80/announce
udp://ipv4.tracker.harry.lu:80/announce
udp://tracker.publicbt.com/announce
udp://shadowshq.eddie4.nl:6969/announce
udp://9.rarbg.com:2710/announce
udp://11.rarbg.com:80/announce
udp://10.rarbg.com/announce
udp://tracker.istole.it:80/announce
udp://exodus.desync.com:6969
udp://tracker.prq.to/announce
udp://tracker.openbittorrent.com:80/announce
udp://tracker.publicbt.com:80/announce

Kategoria:Filmy » DivX - XviD
Dodane10/08/2016 23:08:37
Ostatnie Uaktualnienie10/08/2016 23:51:45
Pokaż/Ukryj pliki:
5 plików
NIKT JESZCZE NIE DODAŁ KOMENTARZA

DODAJ KOMENTARZ
Więcej Emoticon



Wstecz

Żaden z opisanych na stronie plików nie jest przetrzymywany na serwerze. Administrator strony immortaltorrent.pl nie może ponieść konsekwencji prawnych za to co użytkownicy zamieszczają lub piszą na stronie.
Nie możesz używać tego serwisu do rozpowszechniania lub ściągania materiałów do których nie masz odpowiednich praw lub licencji. Użytkownicy zobowiązani są do przestrzeganie tych zasad.
Rejestracja konta jest jednoznaczna z akceptacją zasad.

2017 © immortaltorrent.pl


Najlepsze strony Torrentowe