Torrentów: 137135      Ranga: Gość               Stwórz konto Odzyskiwanie hasła


Kategorie
Filmy
 ⇒ DivX - XviD
 ⇒ RMVB
 ⇒ DVD-R
 ⇒ TV + Seriale
 ⇒ HDTV-HD
 ⇒ VCD - SVCD
 ⇒ x 264
 ⇒  3D
Gry
 ⇒ Gry PC
 ⇒ Gry Konsole
 ⇒ xbox360
Muzyka
 ⇒ Muzyka
 ⇒ Teledyski/Koncerty
Książki - Komiksy
 ⇒ E-Booki + Audio
 ⇒ Komiksy
Inne
 ⇒ XXX
 ⇒ Dla Dzieci
 ⇒ Sport
 ⇒ Pozostałe - Różne
 ⇒ Manga - Anime
 ⇒ GSM - PDA
Aplikacje
 ⇒ Windows
 ⇒ Linux + Macintosh



Detale torrenta

The Shadows: The Final Tour (2004)[BRRip 1080p x264 by alE13 DTS/AC3][Eng]
Kondycja:
Dodane: 12/11/2016
Rozmiar: 17.18 GB
Uploader: alE13

seed(ów): 1
leecher(ów): 22
Pobrane: 0





Ocena: N/A



data:        2004
gatunek:     dokument, rock & roll, instrumental rock
produkcja:   USA
wytwórnia:   Eagle Rock Entertainment Ltd
producent:   Perry Joseph
reżyseria:  Aubrey Powell
czas:       01:05:35 + 01:10:51 + (00:45:17 Interview)

opis:

Filmed live in July 2004, The Shadows reformed for their final farewell tour.
Pioneers of early rock 'n roll', the Shadows were the blue print for some of
the greatest rock guitarists. Features all their greatest hits including
Summer Holiday, Livin Doll, Apache and FBI.

Koncert nakręcono w lipcu 2004 roku, The Shadows wystąpił w ostatecznej trasie pożegnalnej.
The Shadows to pionierzy wczesnego rock & rolla, na tym koncercie zagrali swoje największe
przeboje, takie jak: "Summer Holiday", "Livin Doll", "Apache", "FBI" i inne.
Skład kapeli przez lata się wielokrotnie zmieniał, jednak na tym koncercie wystąpili wszyscy
z pierwotnego składu grupy. Koncert ten napewno zadowoli wszystkich, co lubią takie klimaty.

obsada:

Hank Marvin (gitara, fortepian, śpiew),
Bruce Welch (gitara rytmiczna),
Terence "Jet" Harris (bas),
Tony Meighan (perkusja)

tracklist:



dane techniczne:

The Shadows-The Final Tour (2004)-alE13.mkv
Format                      : Matroska
Format version              : Version 4 / Version 2
File size                   : 7.77 GiB
Duration                    : 1 h 5 min
Overall bit rate            : 17.0 Mb/s
Movie name                  : The Shadows: The Final Tour (2004)-alE13
Encoded date                : UTC 2016-11-10 16:11:38
Writing application         : mkvmerge v8.1.0 ('Psychedelic Postcard') 64bit
Writing library             : libebml v1.3.1 + libmatroska v1.4.2
Cover                       : Yes
Attachments                 : cover.jpg

Video
ID                          : 1
Format                      : AVC
Format/Info                 : Advanced Video Codec
Format profile              : High@L4.1
Format settings, CABAC      : Yes
Format settings, ReFrames   : 2 frames
Codec ID                    : V_MPEG4/ISO/AVC
Duration                    : 1 h 5 min
Bit rate                    : 13.7 Mb/s
Width                       : 1 920 pixels
Height                      : 1 080 pixels
Display aspect ratio        : 16:9
Frame rate mode             : Constant
Frame rate                  : 29.970 (30000/1001) FPS
Color space                 : YUV
Chroma subsampling          : 4:2:0
Bit depth                   : 8 bits
Scan type                   : Progressive
Bits/(Pixel*Frame)          : 0.221
Stream size                 : 6.30 GiB (81%)
Title                       : The Shadows: The Final Tour (2004)-alE13
Writing library             : x264 core 142
Default                     : Yes
Forced                      : No
Color range                 : Limited
Color primaries             : BT.709
Transfer characteristics    : BT.709
Matrix coefficients         : BT.709

Audio #1
ID                          : 2
Format                      : AC-3
Format/Info                 : Audio Coding 3
Mode extension              : CM (complete main)
Format settings, Endianness : Big
Codec ID                    : A_AC3
Duration                    : 1 h 5 min
Bit rate mode               : Constant
Bit rate                    : 448 kb/s
Channel(s)                  : 6 channels
Channel positions           : Front: L C R, Side: L R, LFE
Sampling rate               : 48.0 kHz
Frame rate                  : 31.250 FPS (1536 spf)
Bit depth                   : 16 bits
Compression mode            : Lossy
Stream size                 : 210 MiB (3%)
Title                       : The Shadows: The Final Tour (2004)-alE13
Language                    : English
Default                     : Yes
Forced                      : No

Audio #2
ID                          : 3
Format                      : DTS
Format/Info                 : Digital Theater Systems
Format profile              : MA / Core
Mode                        : 16
Format settings, Endianness : Big
Codec ID                    : A_DTS
Duration                    : 1 h 5 min
Bit rate mode               : Variable / Constant
Bit rate                    : 2 766 kb/s / 1 509 kb/s
Channel(s)                  : 6 channels
Channel positions           : Front: L C R, Side: L R, LFE
Sampling rate               : 48.0 kHz
Frame rate                  : 93.750 FPS (512 spf)
Bit depth                   : 16 bits
Compression mode            : Lossless / Lossy
Stream size                 : 1.27 GiB (16%)
Title                       : The Shadows: The Final Tour (2004)-alE13_DTS_MA
Language                    : English
Default                     : No
Forced                      : No
Podobne torrenty
[HDTV-HD] The Shadows: The Final Tour (2004)[BRRip 1080p x264 by alE13 DTS/AC3][Eng]
[HDTV-HD] R-Point (Arpointeu) (2004)[BRRip 1080p x264 by alE13 AC3/DTS][Lektor i Napisy PL/Eng][Kor]
[HDTV-HD] Król Artur-King Arthur (2004)[BRRip 1080p x264 by alE13 PCM/AC3][Lektor i Napisy PL/Multi Subs][Eng]
[ 3D] Resident Evil: Ostatni Rozdział-Resident Evil: The Final Chapter 3D (2016)[BRRip 1080p x264 by alE13 AC3/DTS][Lektor i Napisy PL/Eng][Eng]
[HDTV-HD] Szybcy i wściekli 8-The Fate of the Furious (2017)-alE13[BRRip 1080p x264 by alE13 AC3/DTS]Napisy PL/Eng][Eng]
[HDTV-HD] Miasto Aniołów-City of Angels (1998)-alE13[BRRip 1080p x264 by alE13 AC3/DTS][Lektor i Napisy PL/Eng][Eng]
[HDTV-HD] Barwy Nocy-Color of night (Director\'s Cut) (1994)-alE13[BRRip 1080p x264 by alE13 AC3][Lektor i Napisy PL/Eng][Eng]
[ 3D] Sawa. Mały wielki bohater-Savva. Heart of the Warrior 3D (2015)-alE13[BRRip 1080p x264 by alE13 AC3][Dubbing PL/Eng][Rus]
[HDTV-HD] Oszukać Przeznaczenie-Final Destination: Antology (2000-2011)[BRRip 1080p x265 HEVC by alE13 AC3]
[HDTV-HD] Ostatnie dni planety Ziemia-Final Days of Planet Earth (2006)[BRRip 1080p by alE13 AC3/DTS][Lektor PL][Eng]
Szczegóły torrenta
Trackerhttp://tracker.torrentyorg.pl/announce
Multitracker http://tracker.torrentyorg.pl/announce
http://mgtracker.org:2710/announce
http://pow7.com:80/announce
http://pow7.com/announce
udp://tracker.leechers-paradise.org:6969/announce
udp://tracker.coppersurfer.tk:6969/announce
udp://tracker.opentrackr.org:1337/announce
udp://tracker.coppersurfer.tk:6969/announce
udp://tracker.leechers-paradise.org:6969/announce
udp://eddie4.nl:6969/announce
udp://tracker.coppersurfer.tk:6969/announce
udp://p4p.arenabg.com:1337/announce
udp://p4p.arenabg.ch:1337/announce
udp://tracker.internetwarriors.net:1337/announce
udp://tracker.openbittorrent.com:80/announce
udp://tracker.piratepublic.com:1337/announce
udp://tracker.opentrackr.org:1337/announce
udp://explodie.org:6969/announce
udp://p4p.arenabg.ch:1337/announce
udp://inferno.demonoid.ooo:3392/announce
udp://inferno.demonoid.pw:3393/announce
udp://tracker.coppersurfer.tk:6969/announce
udp://zer0day.to:1337/announce
udp://tracker.ilibr.org:6969/announce
udp://tracker.leechers-paradise.org:6969/announce
udp://eddie4.nl:6969/announce
udp://tracker.ilibr.org:80/announce

Kategoria:Filmy » HDTV-HD
Dodane12/11/2016 07:11:32
Ostatnie Uaktualnienie12/11/2016 11:06:19
Pokaż/Ukryj pliki:
16 plików
NIKT JESZCZE NIE DODAŁ KOMENTARZA

DODAJ KOMENTARZ
Więcej Emoticon



Wstecz

Żaden z opisanych na stronie plików nie jest przetrzymywany na serwerze. Administrator strony immortaltorrent.pl nie może ponieść konsekwencji prawnych za to co użytkownicy zamieszczają lub piszą na stronie.
Nie możesz używać tego serwisu do rozpowszechniania lub ściągania materiałów do których nie masz odpowiednich praw lub licencji. Użytkownicy zobowiązani są do przestrzeganie tych zasad.
Rejestracja konta jest jednoznaczna z akceptacją zasad.

2017 © immortaltorrent.pl


Najlepsze strony Torrentowe