Torrentów: 147969      Ranga: Gosc               Stwórz konto Odzyskiwanie hasła


Kategorie
Filmy
 ⇒ DivX - XviD
 ⇒ RMVB
 ⇒ DVD-R
 ⇒ TV + Seriale
 ⇒ HDTV-HD
 ⇒ VCD - SVCD
 ⇒ x 264
 ⇒  3D
Gry
 ⇒ Gry PC
 ⇒ Gry Konsole
 ⇒ xbox360
Muzyka
 ⇒ Muzyka
 ⇒ Teledyski/Koncerty
Książki - Komiksy
 ⇒ E-Booki + Audio
 ⇒ Komiksy
Inne
 ⇒ XXX
 ⇒ Dla Dzieci
 ⇒ Sport
 ⇒ Pozostałe - Różne
 ⇒ Manga - Anime
 ⇒ GSM - PDA
Aplikacje
 ⇒ Windows
 ⇒ Linux + Macintosh



Detale torrenta

Pi³a VII - Saw VII *2010* [480p.BRRip.XviD.AC3] [ENG]
Kondycja:
Dodane: 29/12/2010
Rozmiar: 1.54 GB
Uploader: Anonimowy
seed(ów): 1
leecher(ów): 1
Pobrane: 11008





Ocena: N/A

Tytu³............: Saw 3D / Saw VII
Polski Tytu³.....: Pi³a 3D / Pi³a VII
Produkcja........: Kanada, USA
Gatunek..........: Horror
Re¿yseria........: Kevin Greutert
Scenariusz.......: Patrick Melton, Marcus Dunstan
Data Premiery....: 29-10-2010 (Polska), 21-10-2010 (¦wiat)
Ocena IMDB.......: 5.8/10 (9,639 g³osów)
Czas Trwania.....: 90 minut(y)

OBSADA:
Tobin Bell ... Jigsaw / John Kramer
Costas Mandylor ... Det. Mark Hoffman
Betsy Russell ... Jill Tuck
Cary Elwes ... Dr. Lawrence Gordon
Sean Patrick Flanery ... Bobby Dagen

OPIS:
Toczy siê brutalna walka nad dziedzictwem Jigsawa. Ludzie, którym uda³o siê prze¿yæ ¶mierteln± grê, tworz± tymczasem grupê wsparcia. Przewodniczy jej Bobby Dagen. Wkrótce jednak jego w³asne, mroczne tajemnice stan± siê przyczyn± kolejnej fali terroru...

Dane techniczne:
Video
ID : 0
Format : MPEG-4 Visual
Format profile : Advanced Simple@L5
Format settings, BVOP : Yes
Format settings, QPel : No
Format settings, GMC : No warppoints
Format settings, Matrix : Default (MPEG)
Muxing mode : Packed bitstream
Codec ID : XVID
Codec ID/Hint : XviD
Duration : 1h 30mn
Bit rate : 1 985 Kbps
Width : 720 pixels
Height : 400 pixels
Display aspect ratio : 16:9
Frame rate : 23.976 fps
Resolution : 8 bits
Colorimetry : 4:2:0
Scan type : Progressive
Bits/(Pixel*Frame) : 0.288
Stream size : 1.25 GiB (81%)
Writing library : XviD 1.2.1 (UTC 2008-12-04)

Audio
ID : 1
Format : AC-3
Format/Info : Audio Coding 3
Format_Settings_ModeExtension : CM (complete main)
Codec ID : 2000
Duration : 1h 30mn
Bit rate mode : Constant
Bit rate : 448 Kbps
Channel(s) : 6 channels
Channel positions : Front: L C R, Side: L R, LFE
Sampling rate : 48.0 KHz
Stream size : 288 MiB (18%)
Alignment : Aligned on interleaves
Interleave, duration : 42 ms (1.00 video frame)
Interleave, preload duration : 512 ms
Podobne torrenty
[DivX - XviD] Pi³a VII - SAW 3D *2010* [BRRip.XviD] [Lektor PL]
[DivX - XviD] Pi³a mechaniczna - Texas Chainsaw *2013* [480p] [BRRip] [XviD] [AC3] [Lektor PL]
[DivX - XviD] Pi³a VII - Saw 3D *2010* [DVDRip] [XviD-NN] [Lektor PL]
[DivX - XviD] Pi³a V - Saw V *2008* [BRRip.XviD]
[DivX - XviD] Pi³a mechaniczna -Texas Chainsaw *2013* [480p.WEB-DL.XviD-BiDA] [Lektor Jacek ivo]
[DivX - XviD] Secretariat 2010 [480p BRRip XviD AC3][ENG]
[DivX - XviD] Pi³a VII - Saw VII 2010 [DVDRip] [ENG]
[DivX - XviD] Na sprzeda¿ - Everything Must Go *2010* [480p] [BRRip.XviD] [AC3] [5:1] [Lektor PL]
[DivX - XviD] Sk±d Wiesz? - How Do You Know? *2010* [480p] [BRRip] [XviD] [AC3] [Lektor PL]
[DivX - XviD] The Traveler (2010) [480p] [BRRip] [XviD] [AC-3] [Lektor PL] [H1]
Szczegóły torrenta
Trackerhttp://inferno.demonoid.me:3412/announce
Kategoria:Filmy » DivX - XviD
Dodane29/12/2010 17:12:16
Ostatnie Uaktualnienie25/02/2013 21:03:18
NIKT JESZCZE NIE DODAŁ KOMENTARZA

DODAJ KOMENTARZ
Więcej Emoticon



Wstecz

Żaden z opisanych na stronie plików nie jest przetrzymywany na serwerze. Administrator strony immortaltorrent.pl nie może ponieść konsekwencji prawnych za to co użytkownicy zamieszczają lub piszą na stronie.
Nie możesz używać tego serwisu do rozpowszechniania lub ściągania materiałów do których nie masz odpowiednich praw lub licencji. Użytkownicy zobowiązani są do przestrzeganie tych zasad.
Rejestracja konta jest jednoznaczna z akceptacją zasad.

2019 © immortaltorrent.pl


Najlepsze strony Torrentowe