Torrentów: 137061      Ranga: Gość               Stwórz konto Odzyskiwanie hasła


Kategorie
Filmy
 ⇒ DivX - XviD
 ⇒ RMVB
 ⇒ DVD-R
 ⇒ TV + Seriale
 ⇒ HDTV-HD
 ⇒ VCD - SVCD
 ⇒ x 264
 ⇒  3D
Gry
 ⇒ Gry PC
 ⇒ Gry Konsole
 ⇒ xbox360
Muzyka
 ⇒ Muzyka
 ⇒ Teledyski/Koncerty
Książki - Komiksy
 ⇒ E-Booki + Audio
 ⇒ Komiksy
Inne
 ⇒ XXX
 ⇒ Dla Dzieci
 ⇒ Sport
 ⇒ Pozostałe - Różne
 ⇒ Manga - Anime
 ⇒ GSM - PDA
Aplikacje
 ⇒ Windows
 ⇒ Linux + Macintosh



Detale torrenta

Bez przebaczenia-Unforgiven (1992)[REMASTERED][BRRip 1080p x264 by alE13 AC3/DTS][Lektor i Napisy PL/Eng/Multi][Eng]
Kondycja:
Dodane: 30/05/2017
Rozmiar: 13.89 GB
Uploader: alE13

seed(ów): 1
leecher(ów): 0
Pobrane: 0





Ocena: N/A



http://www.imdb.com/title/tt0105695/
http://www.filmweb.pl/Bez.Przebaczenia

Audio DTS i multi-napisy w osobnym pliku.
Plik zawiera Sample.


reżyseria: Clint Eastwood
scenariusz: David Webb Peoples
gatunek: Western
produkcja: USA
premiera: 03-08-1992
muzyka:         Lennie Niehaus
zdjęcia:        Jack N. Green
czas:           2h 10min

opis:

Retired Old West gunslinger William Munny reluctantly takes on one last job, with the help of his old partner and
a young man.

William Munny (Clint Eastwood) był niegdyś rewolwerowcem i łowcą nagród, jednak dziś jego umiejętności odeszły
razem z wiekiem, a burzliwe przygody zastąpiła spokojna farma. Coraz częściej pojawiają się również koszmary
o ludziach, których zabił. Mimo to decyduje się spróbować zdobyć nagrodę, jaką wyznaczyły prostytutki w miasteczku
Big Whiskey za zemstę na człowieku, który okaleczył jedną z ich koleżanek. Zadanie wydaje się być proste, jednak
przychodzi mu się zmierzyć z twardym szeryfem (Gene Hackman).

http://i.imgur.com/Ltil121.jpg
http://i.imgur.com/CO6HBzo.jpg
http://i.imgur.com/KemzTf7.jpg
http://i.imgur.com/wnreaS6.jpg

obsada:

Clint Eastwood, Gene Hackman, Morgan Freeman, Richard Harris

dane techniczne:

Unforgiven (1992)-alE13.mkv
Format                      : Matroska
Format version              : Version 4 / Version 2
File size                   : 8.21 GiB
Duration                    : 2 h 10 min
Overall bit rate            : 8 999 kb/s
Movie name                  : Unforgiven (1992)-alE13_audio
Encoded date                : UTC 2017-05-30 03:01:48
Writing application         : mkvmerge v8.1.0 ('Psychedelic Postcard') 64bit
Writing library             : libebml v1.3.1 + libmatroska v1.4.2
Cover                       : Yes
Attachments                 : cover.jpg / cover.jpg

Video
ID                          : 1
Format                      : AVC
Format/Info                 : Advanced Video Codec
Format profile              : High@L4.1
Format settings, CABAC      : Yes
Format settings, ReFrames   : 2 frames
Format settings, GOP        : M=3, N=24
Codec ID                    : V_MPEG4/ISO/AVC
Duration                    : 2 h 10 min
Bit rate                    : 8 154 kb/s
Width                       : 1 920 pixels
Height                      : 800 pixels
Display aspect ratio        : 2.40:1
Frame rate mode             : Constant
Frame rate                  : 23.976 (24000/1001) FPS
Color space                 : YUV
Chroma subsampling          : 4:2:0
Bit depth                   : 8 bits
Scan type                   : Progressive
Bits/(Pixel*Frame)          : 0.221
Stream size                 : 7.44 GiB (91%)
Title                       : Unforgiven (1992)-alE13
Writing library             : x264 core 142
Default                     : Yes
Forced                      : No
Color range                 : Limited
Color primaries             : BT.709
Transfer characteristics    : BT.709
Matrix coefficients         : BT.709

Audio #1
ID                          : 2
Format                      : AC-3
Format/Info                 : Audio Coding 3
Mode extension              : CM (complete main)
Format settings, Endianness : Big
Codec ID                    : A_AC3
Duration                    : 2 h 10 min
Bit rate mode               : Constant
Bit rate                    : 640 kb/s
Channel(s)                  : 6 channels
Channel positions           : Front: L C R, Side: L R, LFE
Sampling rate               : 48.0 kHz
Frame rate                  : 31.250 FPS (1536 spf)
Compression mode            : Lossy
Stream size                 : 598 MiB (7%)
Title                       : Unforgiven (1992)-alE13
Language                    : English
Default                     : No
Forced                      : No

Audio #2
ID                          : 3
Format                      : AC-3
Format/Info                 : Audio Coding 3
Mode extension              : CM (complete main)
Format settings, Endianness : Big
Codec ID                    : A_AC3
Duration                    : 2 h 10 min
Bit rate mode               : Constant
Bit rate                    : 192 kb/s
Channel(s)                  : 2 channels
Channel positions           : Front: L R
Sampling rate               : 48.0 kHz
Frame rate                  : 31.250 FPS (1536 spf)
Compression mode            : Lossy
Delay relative to video     : 792 ms
Stream size                 : 179 MiB (2%)
Title                       : Unforgiven (1992)-alE13_AC3
Language                    : Polish
Default                     : No
Forced                      : No

Text
ID                          : 4
Format                      : PGS
Muxing mode                 : zlib
Codec ID                    : S_HDMV/PGS
Codec ID/Info               : Picture based subtitle format used on BDs/HD-DVDs
Duration                    : 2 h 10 min
Bit rate                    : 10.2 kb/s
Count of elements           : 2614
Stream size                 : 9.49 MiB (0%)
Title                       : Unforgiven (1992)-alE13_PGS
Language                    : Polish
Default                     : Yes
Forced                      : No

Menu
00:00:00.000                : en:Chapter 01
00:01:11.905                : en:Chapter 02
00:03:54.234                : en:Chapter 03
00:07:01.045                : en:Chapter 04
00:08:17.538                : en:Chapter 05
00:14:10.599                : en:Chapter 06
00:16:54.680                : en:Chapter 07
00:24:18.498                : en:Chapter 08
00:28:52.397                : en:Chapter 09
00:31:42.025                : en:Chapter 10
00:34:34.697                : en:Chapter 11
00:38:53.956                : en:Chapter 12
00:46:24.531                : en:Chapter 13
00:53:43.970                : en:Chapter 14
00:58:05.023                : en:Chapter 15
01:00:24.704                : en:Chapter 16
01:06:48.754                : en:Chapter 17
01:09:36.088                : en:Chapter 18
01:13:48.674                : en:Chapter 19
01:20:59.604                : en:Chapter 20
01:24:46.623                : en:Chapter 21
01:29:38.664                : en:Chapter 22
01:34:27.078                : en:Chapter 23
01:36:10.723                : en:Chapter 24
01:41:10.898                : en:Chapter 25
01:43:13.687                : en:Chapter 26
01:45:50.218                : en:Chapter 27
01:49:19.094                : en:Chapter 28
01:53:14.329                : en:Chapter 29
01:54:34.075                : en:Chapter 30
01:58:21.344                : en:Chapter 31
02:02:12.658                : en:Chapter 32
02:04:32.047                : en:Chapter 33
Podobne torrenty
[DivX - XviD] Bez przebaczenia - Unforgiven *1992* [480p] [BRRip.XviD] [AC3] [5:1] [Lektor PL]
[HDTV-HD] Ronin (1998)[Remastered][BRRip 1080p x264 by alE13 AC3/DTS][Lektor i Napisy PL/Eng][Eng]
[RMVB] Bez Przebaczenia - Unforgiven *1992* [DVDRip.RMVB] [Lektor PL]
[DivX - XviD] Bez Przebaczenia - Unforgiven *1992* [DVDRip.XviD] [Lektor PL]
[HDTV-HD] Bałkańska Vendetta-Kill\'em All (2017)[BRRip 1080p x264 by alE13 AC3/DTS][Lektor i Napisy PL & Multi][Eng]
[HDTV-HD] Irlandzki Szlak-Route Irish (2010)[BRRip 1080p x264 by alE13 DTS/AC3][Lektor i Napisy PL/Multi Sub][Eng]
[HDTV-HD] Lekarstwo na życie-A Cure for Wellness (2016)[BRRip 1080p x264 by alE13 AC3/DTS][Lektor i Napisy PL/Multi][Eng]
[HDTV-HD] Król Artur-King Arthur (2004)[BRRip 1080p x264 by alE13 PCM/AC3][Lektor i Napisy PL/Multi Subs][Eng]
[ 3D] Shrek trzeci-Shrek the Third 3D (2007) [BRRip 1080p x264 by alE13 AC3/DTS/Multi]Dubbing i Napisy PL/Multi][Eng]
[DivX - XviD] Bez przebaczenia - Unforgiven *1992* [DVDRip.XviD]
Szczegóły torrenta
Trackerhttp://tracker.devil-torrents.pl/announce
Multitracker http://tracker.devil-torrents.pl/announce
http://tracker.torrentyorg.pl/announce
udp://tracker.opentrackr.org:1337/announce
udp://tracker.leechers-paradise.org:6969/announce
udp://tracker.ilibr.org:80/announce
udp://tracker.coppersurfer.tk:6969/announce
udp://p4p.arenabg.ch:1337/announce
udp://inferno.demonoid.pw:3391/announce

Kategoria:Filmy » HDTV-HD
Dodane30/05/2017 06:05:37
Ostatnie Uaktualnienie30/05/2017 06:07:37
Pokaż/Ukryj pliki:
15 plików
NIKT JESZCZE NIE DODAŁ KOMENTARZA

DODAJ KOMENTARZ
Więcej Emoticon



Wstecz

Żaden z opisanych na stronie plików nie jest przetrzymywany na serwerze. Administrator strony immortaltorrent.pl nie może ponieść konsekwencji prawnych za to co użytkownicy zamieszczają lub piszą na stronie.
Nie możesz używać tego serwisu do rozpowszechniania lub ściągania materiałów do których nie masz odpowiednich praw lub licencji. Użytkownicy zobowiązani są do przestrzeganie tych zasad.
Rejestracja konta jest jednoznaczna z akceptacją zasad.

2017 © immortaltorrent.pl


Najlepsze strony Torrentowe