Torrentów: 139399      Ranga: Go               Stwórz konto Odzyskiwanie hasła


Kategorie
Filmy
 ⇒ DivX - XviD
 ⇒ RMVB
 ⇒ DVD-R
 ⇒ TV + Seriale
 ⇒ HDTV-HD
 ⇒ VCD - SVCD
 ⇒ x 264
 ⇒  3D
Gry
 ⇒ Gry PC
 ⇒ Gry Konsole
 ⇒ xbox360
Muzyka
 ⇒ Muzyka
 ⇒ Teledyski/Koncerty
Książki - Komiksy
 ⇒ E-Booki + Audio
 ⇒ Komiksy
Inne
 ⇒ XXX
 ⇒ Dla Dzieci
 ⇒ Sport
 ⇒ Pozostałe - Różne
 ⇒ Manga - Anime
 ⇒ GSM - PDA
Aplikacje
 ⇒ Windows
 ⇒ Linux + Macintosh



Detale torrenta

Ajlawju (1999) [DVDRip][XviD-torentup] [PL]
Kondycja:
Dodane: 28/10/2015
Rozmiar: 698.11 MB
Uploader: torentup

seed(ów): 2
leecher(ów): 11
Pobrane: 3





Ocena: N/A

=====================
INFO
================

tytu polski .... Ajlawju
tytu orginalny .... Ajlawju
produkcja .... Polska
gatunek .... Dramat, Komedia, Romans
reyseria .... Marek Koterski
scenariusz .... Marek Koterski
muzyka .... Jerzy Satanowski
zdjcia .... Bogdan Stachurski
na podstawie ....
dystrybucja .... Vision Film Distribution
premiera .... 18 czerwca 1999 (Polska) 18 czerwca 1999 (wiat)
od lat .... 14
czas trwania .... 1:27:19 min.

Filmweb: 6.1/10 ( 21,307 gosw) ( 3,494 chce zobaczy)
http://www.filmweb.pl/film/Ajlawju-1999-567

IMDb: 5.4/10 ( 334 gosw) ( 1 chce zobaczy)
http://www.imdb.com/title/tt0238825/

YouTube - Trailer
https://www.youtube.com/watch?v=dr-8JBiOBdI


=====================
OPIS
====================

Adam przey w yciu niejedno, ale wci czeka na wielk mio. Marzy mu si namitna kochanka, ktra speni jego wszystkie pragnienia. Jego bya ona zawsze uwaaa, e ko suy tylko do spania. Adam ma nadziej,e jest gdzie kobieta, ktra odmieni jego ycie. I nie myli si: Oto na horyzoncie zjawia si pikna Magorzata - tygrysica w skrze skromnej nauczycielki, ktra otwiera przed nim wiat prawdziwej namitnoci. Zalepieni mioci zapominaj o caym wiecie. Ale ich uczucie czekaj te trudne chwile - charakterami pasuj do siebie jak pi do nosa, a polskie realia wystawiaj ich mio na wiele prb. Czy wic romans moe przetrwa? Gdy kochankami s Figura i Pazura - na pewno!

=====================
OBSADA
====================

Cezary Pazura .......... Ada Miauczyski
Katarzyna Figura .......... Gosia
Zbigniew Buczkowski .......... WF-men
Eugenia Herman .......... matka Adama
Micha Koterski .......... Sylwu, syn Adama
Maciej Kozowski .......... partner Gosi
Cezary ak .......... Rysiek, kolega Gosi
Barry Abdullaje .......... Gary
Anna Milewska .......... matka Gosi
Anna Powierza .......... crka Gosi
Eugeniusz Priwieziencew .......... takswkarz
Norbert Rakowski .......... sanitariusz w izbie wytrzewie
Jan Jurewicz .......... WF-men
Carlos Fereira ..........
Katarzyna Gajdarska .......... znajoma Adama przy barze
Ewa Grabarczyk .......... panna moda
Elbieta Jarosik .......... kobieta jedzca buk w pocigu
Tadeusz Pokrywka ..........
Barbara Poznaski ..........
Zdzisaw Rychter .......... sanitariusz w izbie wytrzewie
Tom Sendagi ..........
Witold Skaruch .......... ksidz
Magorzata Werner .......... barmanka

=====================
DANE TECHNICZNE
=====================
Format                         : AVI
Format/Info                    : Audio Video Interleave
File size                      : 698 MiB
Duration                       : 1h 27mn
Overall bit rate               : 1 118 Kbps
Writing library                : VirtualDub build 10805/release

Video
ID                             : 0
Format                         : MPEG-4 Visual
Codec ID                       : DIV3
Codec ID/Hint                  : DivX 3 Low
Duration                       : 1h 27mn
Bit rate                       : 980 Kbps
Width                          : 640 pixels
Height                         : 480 pixels
Display aspect ratio           : 4:3
Frame rate                     : 25.000 fps
Color space                    : YUV
Chroma subsampling             : 4:2:0
Bit depth                      : 8 bits
Compression mode               : Lossy
Bits/(Pixel*Frame)             : 0.128
Stream size                    : 612 MiB (88%)

Audio
ID                             : 1
Format                         : MPEG Audio
Format version                 : Version 1
Format profile                 : Layer 3
Mode                           : Joint stereo
Mode extension                 : MS Stereo
Codec ID                       : 55
Codec ID/Hint                  : MP3
Duration                       : 1h 27mn
Bit rate mode                  : Constant
Bit rate                       : 128 Kbps
Channel(s)                     : 2 channels
Sampling rate                  : 48.0 KHz
Compression mode               : Lossy
Stream size                    : 79.9 MiB (11%)
Alignment                      : Split accross interleaves
Interleave, duration           : 40 ms (1.00 video frame)
Interleave, preload duration   : 451 ms


Podobne torrenty
[DivX - XviD] Ajlawju (1999) [DVDRip.DivX] [PL]
[DivX - XviD] American Beauty (1999) [DVDRip] [XviD-torentup][Lektor PL]
[DivX - XviD] K-9 (1989) [DVDRip][XviD-torentup] [Lektor PL]
[Dla Dzieci] Pocahontas (1995)[DVDRip][Xvid-torentup][Lektor PL]
[DivX - XviD] Step Up 3 (2010)[DVDRip][Xvid-torentup][Lektor PL]
[DivX - XviD] Apartament-(2015)[DVDRip][Xvid-torentup][DD5.1][Lektor PL]
[DivX - XviD] Disco Polo (2015) [DVDRip] [XviD-torentup] [PL]
[DivX - XviD] Pilkarski poker(1988) [DVDRip] [XviD-torentup] [PL]
[DivX - XviD] Barbershop 2002 [AC3] [DVDRip] [XviD-torentup] [Lektor PL]
[DivX - XviD] Grunt to rodzinka (2004) [DVDRip] [XviD-torentup] [Lektor PL ]
Szczegóły torrenta
Trackerhttp://tracker.filetracker.pl:8089/announce
Multitracker http://tracker.filetracker.pl:8089/announce
http://tracker.free-torrents.pl/announce
http://tracker.streettorrent.pl:80/announce
http://tracker.torrenty.org:6969/announce
http://tracker.aletorrenty.pl:2710/announce
http://tracker.pubt.net:2710/announce
http://94.228.192.98/announce
http://www.tlv.cc:7777/announce
http://tracker.torrenty.org:6969/announce
http://retracker.omsk.ru:2710/announce
http://tracker.immortaltorrent.pl/announce
udp://open.demonii.com:1337/announce
http://tracker.best-torrents.net:6969/announce
udp://torrent.gresille.org:80/announce
udp://9.rarbg.me:2710/announce
udp://eddie4.nl:6969/announce
udp://tracker.leechers-paradise.org:6969/announce
udp://tracker4.piratux.com:6969/announce
udp://www.eddie4.nl:6969/announce
udp://open.demonii.com:1337/announce
udp://tracker.openbittorrent.com:80/announce
udp://tracker.publicbt.com:80/announce
udp://ipv4.tracker.harry.lu:80/announce
udp://tracker.publicbt.com/announce
udp://shadowshq.eddie4.nl:6969/announce
udp://9.rarbg.com:2710/announce
udp://11.rarbg.com:80/announce
udp://10.rarbg.com/announce
udp://tracker.istole.it:80/announce
udp://exodus.desync.com:6969
udp://open.demonii.com:1337/announce
udp://tracker.prq.to/announce

Kategoria:Filmy » DivX - XviD
Dodane28/10/2015 21:10:56
Ostatnie Uaktualnienie29/10/2015 08:01:49
Pokaż/Ukryj pliki:
5 plików
NIKT JESZCZE NIE DODAŁ KOMENTARZA

DODAJ KOMENTARZ
Więcej Emoticon



Wstecz

Żaden z opisanych na stronie plików nie jest przetrzymywany na serwerze. Administrator strony immortaltorrent.pl nie może ponieść konsekwencji prawnych za to co użytkownicy zamieszczają lub piszą na stronie.
Nie możesz używać tego serwisu do rozpowszechniania lub ściągania materiałów do których nie masz odpowiednich praw lub licencji. Użytkownicy zobowiązani są do przestrzeganie tych zasad.
Rejestracja konta jest jednoznaczna z akceptacją zasad.

2018 © immortaltorrent.pl


Najlepsze strony Torrentowe