Torrentów: 138517      Ranga: Gość               Stwórz konto Odzyskiwanie hasła


Kategorie
Filmy
 ⇒ DivX - XviD
 ⇒ RMVB
 ⇒ DVD-R
 ⇒ TV + Seriale
 ⇒ HDTV-HD
 ⇒ VCD - SVCD
 ⇒ x 264
 ⇒  3D
Gry
 ⇒ Gry PC
 ⇒ Gry Konsole
 ⇒ xbox360
Muzyka
 ⇒ Muzyka
 ⇒ Teledyski/Koncerty
Książki - Komiksy
 ⇒ E-Booki + Audio
 ⇒ Komiksy
Inne
 ⇒ XXX
 ⇒ Dla Dzieci
 ⇒ Sport
 ⇒ Pozostałe - Różne
 ⇒ Manga - Anime
 ⇒ GSM - PDA
Aplikacje
 ⇒ Windows
 ⇒ Linux + Macintosh



Detale torrenta

Biały Kieł-White Fang (1991)[WebRip 1080p x264 by alE13 AC3][Lektor i Napisy PL/Eng][Eng]
Kondycja:
Dodane: 10/08/2017
Rozmiar: 7.96 GB
Uploader: alE13

seed(ów): 1
leecher(ów): 0
Pobrane: 0





Ocena: N/A



http://www.imdb.com/title/tt0103247/
http://www.filmweb.pl/film/Bia%C5%82y+Kie%C5%82-1991-11632

Plik zawiera Sample.

reżyseria: Randal Kleiser
scenariusz: Nick Thiel,David Fallon,Jeanne Rosenberg
gatunek: Dramat,Przygodowy
produkcja: USA
premiera: 18-01-1991
muzyka:         Hans Zimmer,Basil Poledouris
zdjęcia:        Tony Pierce-Roberts
czas:           1h 48min

opis:

Jack London's classic adventure story about the friendship developed between a Yukon gold hunter
and the mixed dog-wolf he rescues from the hands of a man who mistreats him.

Adaptacja przygodowej powieści Jacka Londona "Biały Kieł". Historia dzielnego psa, który od szczenięctwa
musi sam dawać sobie radę pośród dzikich zwierząt i złych ludzi, staje się więc także dziki i niebezpieczny.
W końcu - dzięki przyjaźni z dobrym opiekunem - znajduje swoje miejsce na ziemi.

http://i.imgur.com/z0mSOJm.jpg
http://i.imgur.com/XWDqTSA.jpg
http://i.imgur.com/QIxzEd3.jpg
http://i.imgur.com/o9tHZcN.jpg

obsada:

Ethan Hawke, Klaus Maria Brandauer, Seymour Cassel

dane techniczne:

White Fang (1991)-alE13.mkv
Format                      : Matroska
Format version              : Version 4 / Version 2
File size                   : 7.91 GiB
Duration                    : 1 h 48 min
Overall bit rate mode       : Variable
Overall bit rate            : 10.4 Mb/s
Movie name                  : White Fang (1991)-alE13
Encoded date                : UTC 2017-08-10 03:35:12
Writing application         : mkvmerge v8.1.0 ('Psychedelic Postcard') 64bit
Writing library             : libebml v1.3.1 + libmatroska v1.4.2
Cover                       : Yes
Attachments                 : Cover.jpg

Video
ID                          : 1
Format                      : AVC
Format/Info                 : Advanced Video Codec
Format profile              : High@L4
Format settings, CABAC      : Yes
Format settings, RefFrames  : 3 frames
Codec ID                    : V_MPEG4/ISO/AVC
Duration                    : 1 h 48 min
Bit rate mode               : Variable
Bit rate                    : 9 511 kb/s
Maximum bit rate            : 20.0 Mb/s
Width                       : 1 920 pixels
Height                      : 1 080 pixels
Display aspect ratio        : 16:9
Frame rate mode             : Constant
Frame rate                  : 23.976 (24000/1001) FPS
Standard                    : PAL
Color space                 : YUV
Chroma subsampling          : 4:2:0
Bit depth                   : 8 bits
Scan type                   : Progressive
Bits/(Pixel*Frame)          : 0.191
Stream size                 : 7.23 GiB (91%)
Title                       : White Fang (1991)-alE13
Default                     : Yes
Forced                      : No
Color range                 : Limited
Color primaries             : BT.709
Transfer characteristics    : BT.709
Matrix coefficients         : BT.709

Audio #1
ID                          : 2
Format                      : AC-3
Format/Info                 : Audio Coding 3
Format settings, Endianness : Big
Codec ID                    : A_AC3
Duration                    : 1 h 48 min
Bit rate mode               : Constant
Bit rate                    : 256 kb/s
Channel(s)                  : 2 channels
Channel positions           : Front: L R
Sampling rate               : 48.0 kHz
Frame rate                  : 31.250 FPS (1536 SPF)
Bit depth                   : 16 bits
Compression mode            : Lossy
Stream size                 : 199 MiB (2%)
Title                       : White Fang (1991)-alE13_AC3
Language                    : Polish
Service kind                : Complete Main
Default                     : Yes
Forced                      : No

Audio #2
ID                          : 3
Format                      : E-AC-3
Format/Info                 : Enhanced Audio Coding 3
Format settings, Endianness : Big
Codec ID                    : A_EAC3
Duration                    : 1 h 48 min
Bit rate mode               : Constant
Bit rate                    : 640 kb/s
Channel(s)                  : 6 channels
Channel positions           : Front: L C R, Side: L R, LFE
Sampling rate               : 48.0 kHz
Frame rate                  : 187.500 FPS (256 SPF)
Compression mode            : Lossy
Stream size                 : 498 MiB (6%)
Title                       : White Fang (1991)-alE13_AC3
Language                    : English
Service kind                : Complete Main
Default                     : No
Forced                      : No

Text #1
ID                          : 4
Format                      : UTF-8
Codec ID                    : S_TEXT/UTF8
Codec ID/Info               : UTF-8 Plain Text
Duration                    : 1 h 43 min
Bit rate                    : 33 b/s
Count of elements           : 1085
Stream size                 : 25.6 KiB (0%)
Title                       : White Fang (1991)-alE13
Language                    : English
Default                     : No
Forced                      : No

Text #2
ID                          : 5
Format                      : UTF-8
Codec ID                    : S_TEXT/UTF8
Codec ID/Info               : UTF-8 Plain Text
Duration                    : 1 h 40 min
Bit rate                    : 24 b/s
Count of elements           : 697
Stream size                 : 17.7 KiB (0%)
Title                       : White Fang (1991)-alE13
Language                    : Polish
Default                     : No
Forced                      : No

Menu
00:00:00.000                : en:1. Opening Titles/The Golden Staircase
00:11:23.995                : en:2. Yukon Journey
00:18:14.995                : en:3. Wolves Attack
00:28:38.995                : en:4. Orphaned Pup
00:41:10.995                : en:5. Alex and Jack
00:49:16.995                : en:6. Jack Meets White Fang
00:58:22.995                : en:7. Getting Started
01:06:47.995                : en:8. Beauty Smith's Fighting Wolf
01:16:55.995                : en:9. White Fang's New Home
01:25:49.995                : en:10. Gold!
01:30:38.995                : en:11. Firefight
01:36:12.995                : en:12. Saying Goodbye/End Credits
Podobne torrenty
[HDTV-HD] Biały Kieł 2: Legenda o Białym Wilku-White Fang 2: Myth of the White Wolf (1994)[WebRip 1080p x264 by alE13 AC3][Lektor i Napisy Eng][Eng]
[x 264] Biały Kieł - White Fang (1991) [BDRip.x264.DualAudio.AC3] [Lektor PL]
[HDTV-HD] Bugsy (1991)[WebRip 1080p x264 by alE13 AC3][Lektor i Napisy PL/Eng][Eng]
[HDTV-HD] Biały Kanion-The Big Country (1958)[BRRip 1080p x264 by alE13 AC3/DTS][Lektor i Napisy PL/Eng][Eng]
[HDTV-HD] Oni czasami wracają-Sometimes They Come Back (1991)[BRRip 1080p x264 by alE13 DTS/AC3][Lektor i Napisy PL/Eng][Eng]
[HDTV-HD] Białe Boże Narodzenie-White Christmas (1954) [BRRip 1080p.x264 by alE13.DTS-MA/Core/AC3][Lektor i Napisy PL][Eng]
[HDTV-HD] Nevada Smith (1966)[WEBRip.1080p.x264 by alE13.AC3][Lektor i Napisy PL/Eng][Eng]
[HDTV-HD] Smoking-The Tuxedo (2002)[WEBRip 1080p x264 by alE13 AC3][Lektor i Napisy PL/Eng][Eng]
[HDTV-HD] Imperium-Empire (2002)[WEBRip 1080p x264 by alE13 AC3][Lektor i Napisy PL/Eng][Eng]
[HDTV-HD] Kapitan Ron-Captain Ron (1992)[WEBRip 1080p x264 by alE13 AC3][Lektor i Napisy PL/Eng][Eng]
Szczegóły torrenta
Trackerhttp://tracker.devil-torrents.pl/announce
Multitracker http://tracker.devil-torrents.pl/announce
http://tracker.torrentyorg.pl/announce
udp://tracker.opentrackr.org:1337/announce
udp://tracker.leechers-paradise.org:6969/announce
udp://tracker.ilibr.org:80/announce
udp://tracker.coppersurfer.tk:6969/announce
udp://p4p.arenabg.ch:1337/announce
udp://inferno.demonoid.pw:3391/announce

Kategoria:Filmy » HDTV-HD
Dodane10/08/2017 06:08:19
Ostatnie Uaktualnienie10/08/2017 06:12:20
Pokaż/Ukryj pliki:
19 plików
NIKT JESZCZE NIE DODAŁ KOMENTARZA

DODAJ KOMENTARZ
Więcej Emoticon



Wstecz

Żaden z opisanych na stronie plików nie jest przetrzymywany na serwerze. Administrator strony immortaltorrent.pl nie może ponieść konsekwencji prawnych za to co użytkownicy zamieszczają lub piszą na stronie.
Nie możesz używać tego serwisu do rozpowszechniania lub ściągania materiałów do których nie masz odpowiednich praw lub licencji. Użytkownicy zobowiązani są do przestrzeganie tych zasad.
Rejestracja konta jest jednoznaczna z akceptacją zasad.

2017 © immortaltorrent.pl


Najlepsze strony Torrentowe