Torrentów: 145926      Ranga: Gosc               Stwórz konto Odzyskiwanie hasła


Kategorie
Filmy
 ⇒ DivX - XviD
 ⇒ RMVB
 ⇒ DVD-R
 ⇒ TV + Seriale
 ⇒ HDTV-HD
 ⇒ VCD - SVCD
 ⇒ x 264
 ⇒  3D
Gry
 ⇒ Gry PC
 ⇒ Gry Konsole
 ⇒ xbox360
Muzyka
 ⇒ Muzyka
 ⇒ Teledyski/Koncerty
Książki - Komiksy
 ⇒ E-Booki + Audio
 ⇒ Komiksy
Inne
 ⇒ XXX
 ⇒ Dla Dzieci
 ⇒ Sport
 ⇒ Pozostałe - Różne
 ⇒ Manga - Anime
 ⇒ GSM - PDA
Aplikacje
 ⇒ Windows
 ⇒ Linux + Macintosh



Detale torrenta

W głowie się nie mieści/Inside Out 3D (2015)[BRRip 1080p x264 by alE13 AC3][Dubbing i Napisy PL/Eng][Eng]
Kondycja:
Dodane: 11/09/2018
Rozmiar: 14.59 GB
Uploader: alE13

seed(ów): 1
leecher(ów): 1
Pobrane: 0





Ocena: N/A

http://i.imgur.com/51l3y3O.jpg

https://www.imdb.com/title/tt2096673/
https://www.filmweb.pl/film/W+g%C5%82owie+si%C4%99+nie+mie%C5%9Bci-2015-682170

Film w wersji 3D Half Side by Side.
Audio DTS MA/Core (8 CH) w osobnym pliku.
Plik zawiera sample.

reżyseria: Pete Docter
scenariusz: Pete Docter,Meg LeFauve
gatunek: Animacja,Komedia
produkcja: USA
premiera: 18-05-2015
muzyka:         Michael Giacchino
czas:           01:34:37

opis:

After young Riley is uprooted from her Midwest life and moved to San Francisco, her emotions - Joy, Fear, Anger, Disgust
and Sadness - conflict on how best to navigate a new city, house, and school.

Życiem Riley kieruje pięć emocji: Radość, Strach, Gniew, Odraza i Smutek. Pozostałe próbują zakłócić pierwszą, gdy
dziewczyna przeprowadza się z rodzicami do San Francisco.

"W głowie się nie mieści" doskonale łączy inteligentny humor, dynamiczną akcję i szaloną wyobraźnię. Po pokazie
w Cannes zachwyceni dziennikarze zgotowali animacji owacje na stojąco. Wiem, że pozytywne przyjęcie przez publikę
złożoną z samych dorosłych  może być słabą rekomendacją dla filmu ze studia Pixar, ale na wszelki wypadek przypomnijmy
sobie jeszcze jedno żelazne prawo psychologii: każdy dorosły nosi w sobie pewien ślad dziecka.

http://i.imgur.com/dVZUUIs.jpg
http://i.imgur.com/5E5L8Rb.jpg
http://i.imgur.com/UxRgymi.jpg
http://i.imgur.com/oFAthBu.jpg

obsada:

Amy Poehler, Bill Hader, Lewis Black (voice)

dane techniczne:

video:

Inside Out 3D (2015)-alE13.mkv

Hash: 2789DA13C06D9245
Format: Matroska
Czas: 01:34:37.991
Rozmiar: 7.67 GiB (8240237600)

Wideo (0):
Kodek:         (V_MPEG4/ISO/AVC) AVC
Format:       AVC
Rozmiar Obrazu: 1920x1080
FrameRate:     23.976 (24000/1001) FPS
Aspect ratio: 16:9
BitRate:       10.9 Mb/s

Audio (0):
Kodek:         (AC3) AC3
Format:       AC-3
Kanały:       6 channels
BitRate:       448 kb/s
Tytuł:         Inside Out 3D (2015)-alE13_AC3
Język:       English

Audio (1):
Kodek:         (AC3) AC3
Format:       AC-3
Kanały:       2 channels
BitRate:       256 kb/s
Tytuł:         Inside Out 3D (2015)-alE13_AC3
Język:       Polish


Napisy (0):
Kodek:         (S_VOBSUB) VobSub
Format:       VobSub
Język:       Polish (Inside Out 3D (2015)-alE13_VobSub 3D)

audio:

Inside Out 3D (2015)-alE13_DTS.mka
Format                      : Matroska
Format version              : Version 4 / Version 2
File size                   : 6.84 GiB
Duration                    : 1 h 34 min
Overall bit rate            : 10.3 Mb/s
Track name                  : Inside Out 3D (2015)-alE13
Encoded date                : UTC 2018-09-11 03:05:23
Writing application         : mkvmerge v8.1.0 ('Psychedelic Postcard') 64bit
Writing library             : libebml v1.3.1 + libmatroska v1.4.2
Cover                       : Yes
Attachments                 : Cover.jpg

Audio #1
ID                          : 1
Format                      : DTS
Format/Info                 : Digital Theater Systems
Format profile              : MA / Core
Codec ID                    : A_DTS
Duration                    : 1 h 34 min
Bit rate mode               : Variable / Constant
Bit rate                    : 3 290 kb/s / 1 509 kb/s
Channel(s)                  : 8 channels / 6 channels
Channel positions           : Front: L C R, Side: L R, Back: L R, LFE / Front: L C R, Side: L R, LFE
Sampling rate               : 48.0 kHz
Frame rate                  : 93.750 FPS (512 SPF)
Bit depth                   : 24 bits
Compression mode            : Lossless / Lossy
Stream size                 : 2.17 GiB (32%)
Title                       : Inside Out 3D (2015)-alE13_HD Master Audio
Language                    : English
Default                     : Yes
Forced                      : No

Audio #2
ID                          : 2
Format                      : DTS
Format/Info                 : Digital Theater Systems
Codec ID                    : A_DTS
Duration                    : 1 h 34 min
Bit rate mode               : Constant
Bit rate                    : 1 509 kb/s
Channel(s)                  : 6 channels
Channel positions           : Front: L C R, Side: L R, LFE
Sampling rate               : 48.0 kHz
Frame rate                  : 93.750 FPS (512 SPF)
Bit depth                   : 24 bits
Compression mode            : Lossy
Stream size                 : 1 021 MiB (15%)
Title                       : Inside Out 3D (2015)-alE13_DTS
Language                    : English
Default                     : No
Forced                      : No

Audio #3
ID                          : 3
Format                      : DTS
Format/Info                 : Digital Theater Systems
Format profile              : HRA / Core
Codec ID                    : A_DTS
Duration                    : 1 h 34 min
Bit rate mode               : Constant
Bit rate                    : 2 046 kb/s / 1 509 kb/s
Channel(s)                  : 6 channels
Channel positions           : Front: L C R, Side: L R, LFE
Sampling rate               : 48.0 kHz
Frame rate                  : 93.750 FPS (512 SPF)
Bit depth                   : 24 bits
Compression mode            : Lossy
Stream size                 : 1.35 GiB (20%)
Title                       : Inside Out 3D (2015)-alE13_HD High Resolution
Language                    : English
Default                     : No
Forced                      : No

Audio #4
ID                          : 4
Format                      : DTS
Format/Info                 : Digital Theater Systems
Codec ID                    : A_DTS
Duration                    : 1 h 34 min
Bit rate mode               : Constant
Bit rate                    : 1 509 kb/s
Channel(s)                  : 6 channels
Channel positions           : Front: L C R, Side: L R, LFE
Sampling rate               : 48.0 kHz
Frame rate                  : 93.750 FPS (512 SPF)
Bit depth                   : 24 bits
Compression mode            : Lossy
Stream size                 : 1 021 MiB (15%)
Title                       : Inside Out 3D (2015)-alE13_DTS
Language                    : English
Default                     : No
Forced                      : No

Audio #5
ID                          : 5
Format                      : AC-3
Format/Info                 : Audio Coding 3
Codec ID                    : A_AC3
Duration                    : 1 h 34 min
Bit rate mode               : Constant
Bit rate                    : 320 kb/s
Channel(s)                  : 2 channels
Channel positions           : Front: L R
Sampling rate               : 48.0 kHz
Frame rate                  : 31.250 FPS (1536 SPF)
Bit depth                   : 16 bits
Compression mode            : Lossy
Stream size                 : 217 MiB (3%)
Title                       : Inside Out 3D (2015)-alE13_AC3
Language                    : English
Service kind                : Complete Main
Default                     : No
Forced                      : No

Audio #6
ID                          : 6
Format                      : AC-3
Format/Info                 : Audio Coding 3
Codec ID                    : A_AC3
Duration                    : 1 h 34 min
Bit rate mode               : Constant
Bit rate                    : 320 kb/s
Channel(s)                  : 2 channels
Channel positions           : Front: L R
Sampling rate               : 48.0 kHz
Frame rate                  : 31.250 FPS (1536 SPF)
Bit depth                   : 16 bits
Compression mode            : Lossy
Stream size                 : 217 MiB (3%)
Title                       : Inside Out 3D (2015)-alE13_AC3
Language                    : English
Service kind                : Complete Main
Default                     : No
Forced                      : No

Audio #7
ID                          : 7
Format                      : AC-3
Format/Info                 : Audio Coding 3
Codec ID                    : A_AC3
Duration                    : 1 h 34 min
Bit rate mode               : Constant
Bit rate                    : 640 kb/s
Channel(s)                  : 6 channels
Channel positions           : Front: L C R, Side: L R, LFE
Sampling rate               : 48.0 kHz
Frame rate                  : 31.250 FPS (1536 SPF)
Bit depth                   : 16 bits
Compression mode            : Lossy
Stream size                 : 433 MiB (6%)
Title                       : Inside Out 3D (2015)-alE13_AC3
Language                    : French
Service kind                : Complete Main
Default                     : No
Forced                      : No

Audio #8
ID                          : 8
Format                      : AC-3
Format/Info                 : Audio Coding 3
Codec ID                    : A_AC3
Duration                    : 1 h 34 min
Bit rate mode               : Constant
Bit rate                    : 640 kb/s
Channel(s)                  : 6 channels
Channel positions           : Front: L C R, Side: L R, LFE
Sampling rate               : 48.0 kHz
Frame rate                  : 31.250 FPS (1536 SPF)
Bit depth                   : 16 bits
Compression mode            : Lossy
Stream size                 : 433 MiB (6%)
Title                       : Inside Out 3D (2015)-alE13_AC3
Language                    : Spanish
Service kind                : Complete Main
Default                     : No
Forced                      : No

Text #1
ID                          : 9
Format                      : PGS
Muxing mode                 : zlib
Codec ID                    : S_HDMV/PGS
Codec ID/Info               : Picture based subtitle format used on BDs/HD-DVDs
Duration                    : 1 h 26 min
Bit rate                    : 18.5 kb/s
Count of elements           : 2732
Stream size                 : 11.5 MiB (0%)
Title                       : Inside Out 3D (2015)-alE13
Language                    : English
Default                     : No
Forced                      : No

Text #2
ID                          : 10
Format                      : PGS
Muxing mode                 : zlib
Codec ID                    : S_HDMV/PGS
Codec ID/Info               : Picture based subtitle format used on BDs/HD-DVDs
Duration                    : 1 h 27 min
Bit rate                    : 23.0 kb/s
Count of elements           : 3690
Stream size                 : 14.3 MiB (0%)
Title                       : Inside Out 3D (2015)-alE13
Language                    : English
Default                     : No
Forced                      : No

Text #3
ID                          : 11
Format                      : PGS
Muxing mode                 : zlib
Codec ID                    : S_HDMV/PGS
Codec ID/Info               : Picture based subtitle format used on BDs/HD-DVDs
Duration                    : 1 h 26 min
Bit rate                    : 17.4 kb/s
Count of elements           : 2534
Stream size                 : 10.8 MiB (0%)
Title                       : Inside Out 3D (2015)-alE13
Language                    : French
Default                     : No
Forced                      : No

Text #4
ID                          : 12
Format                      : PGS
Muxing mode                 : zlib
Codec ID                    : S_HDMV/PGS
Codec ID/Info               : Picture based subtitle format used on BDs/HD-DVDs
Duration                    : 1 h 26 min
Bit rate                    : 17.8 kb/s
Count of elements           : 2496
Stream size                 : 11.1 MiB (0%)
Title                       : Inside Out 3D (2015)-alE13
Language                    : Spanish
Default                     : No
Forced                      : No
Podobne torrenty
[ 3D] Sawa. Ma³y wielki bohater-Savva. Heart of the Warrior 3D (2015)-alE13[BRRip 1080p x264 by alE13 AC3][Dubbing PL/Eng][Rus]
[HDTV-HD] Córki dancingu-The Lure (2015)-alE13[BRRip 1080p x264 by alE13 AC3/Napisy Eng][PL]
[HDTV-HD] Wrota za¶wiatów-Pay the Ghost (2015)[BRRip 1080p x264 by alE13 AC3/DTS][Napisy PL/Eng][Eng]
[Teledyski/Koncerty] Deep Purple: From The Setting Sun 3D (2015)[BRRip 1080p x264 by alE13 AC3/DTS][Napisy PL/Eng][Eng]
[ 3D] Ant-Man i Osa/Ant-Man and the Wasp 3D (2018)[BRRip 1080p x264 by alE13 AC3/DTS][Dubbing i Napisy PL/Eng][Eng]
[HDTV-HD] I Ujrza³em ¦wiat³o: Historia Hanka Williamsa-I Saw the Light (2015)[BRRip 1080p x264 by alE13 AC3/DTS][Lektor i Napisy PL/Eng][Eng]
[HDTV-HD] Ujrza³em ¦wiat³o: Historia Hanka Williamsa - I Saw the Light (2015)[BRRip 1080p x264 by alE13 AC3/DTS][Lektor i Napisy PL/Eng][Eng]
[ 3D] Piêkna i Bestia-Beauty & The Beast 3D (2017)[BRRip 1080p x264 by alE13 AC3/DTS][Dubbing i Napisy Eng][Eng]
[ 3D] Stra¿nicy Galaktyki vol.2-Guardians of the Galaxy Vol.2 3D (2017)[BRRip 1080p x264 by alE13 AC3/DTS][Dubbing i Napisy PL/Eng][Eng]
[HDTV-HD] Tomahawk z Kości/Bone Tomahawk (2015)[BRRip 1080p x264 by alE13 AC3/DTS][Lektor i napisy PL/Eng][Eng]
Szczegóły torrenta
Trackerudp://tracker.opentrackr.org:1337/announce
Multitracker udp://tracker.opentrackr.org:1337/announce
udp://tracker.coppersurfer.tk:6969/announce
udp://tracker.leechers-paradise.org:6969/announce
udp://inferno.demonoid.pw:3391/announce
http://tracker.torrentyorg.pl/announce
udp://p4p.arenabg.ch:1337/announce
http://tracker.devil-torrents.pl/announce
udp://tracker.ilibr.org:80/announce

Kategoria:Filmy » 3D
Dodane11/09/2018 10:09:11
Ostatnie Uaktualnienie11/09/2018 10:43:11
Pokaż/Ukryj pliki:
24 plików
NIKT JESZCZE NIE DODAŁ KOMENTARZA

DODAJ KOMENTARZ
Więcej Emoticon



Wstecz

Żaden z opisanych na stronie plików nie jest przetrzymywany na serwerze. Administrator strony immortaltorrent.pl nie może ponieść konsekwencji prawnych za to co użytkownicy zamieszczają lub piszą na stronie.
Nie możesz używać tego serwisu do rozpowszechniania lub ściągania materiałów do których nie masz odpowiednich praw lub licencji. Użytkownicy zobowiązani są do przestrzeganie tych zasad.
Rejestracja konta jest jednoznaczna z akceptacją zasad.

2018 © immortaltorrent.pl


Najlepsze strony Torrentowe