Torrentów: 137215      Ranga: Gość               Stwórz konto Odzyskiwanie hasła


Kategorie
Filmy
 ⇒ DivX - XviD
 ⇒ RMVB
 ⇒ DVD-R
 ⇒ TV + Seriale
 ⇒ HDTV-HD
 ⇒ VCD - SVCD
 ⇒ x 264
 ⇒  3D
Gry
 ⇒ Gry PC
 ⇒ Gry Konsole
 ⇒ xbox360
Muzyka
 ⇒ Muzyka
 ⇒ Teledyski/Koncerty
Książki - Komiksy
 ⇒ E-Booki + Audio
 ⇒ Komiksy
Inne
 ⇒ XXX
 ⇒ Dla Dzieci
 ⇒ Sport
 ⇒ Pozostałe - Różne
 ⇒ Manga - Anime
 ⇒ GSM - PDA
Aplikacje
 ⇒ Windows
 ⇒ Linux + Macintosh



Detale torrenta

Ucieczka do zwycięstwa-Victory (1981)[WEBRip 1080p by alE13 AC3][Lektor i Napisy PL/Eng][Eng]
Kondycja:
Dodane: 13/01/2017
Rozmiar: 6.14 GB
Uploader: alE13

seed(ów): 0
leecher(ów): 0
Pobrane: 0





Ocena: N/A



http://www.filmweb.pl/film/Ucieczka+do+zwyci%C4%99stwa-1981-11453
http://www.imdb.com/title/tt0083284/

Plik zawiera Sample.

reżyseria: John Huston
scenariusz: Yabo Yablonsky,Evan Jones
gatunek: Wojenny,Sportowy
produkcja: USA
premiera: 07-07-1981
muzyka:         Bill Conti
zdjęcia:        Gerry Fisher
czas:           1h 51mn

opis:

As allied POWs prepare for a soccer game against the German National Team to be played in Nazi-occupied Paris,
the French Resistance and British officers are making plans for the team's escape.

Akcja rozgrywa się w niemieckim obozie jenieckim podczas II Wojny Światowej. Specjaliści od faszystowskiej
propagandy organizują w obozie mecz piłki nożnej Niemcy kontra więźniowie. Chcą w ten sposób pokazać jeńcom
swoją przewagę. Ci ostatni jednak zamierzają wykorzystać zamieszanie towarzyszące grze aby uciec z obozu.
W roli jednego z piłkarzy wystąpił Kazimierz Deyna.

http://i.imgur.com/9g6tLRx.jpg
http://i.imgur.com/mA11mtW.jpg
http://i.imgur.com/aXGOZKu.jpg
http://i.imgur.com/cnfLRTE.jpg

obsada:

Michael Caine, Sylvester Stallone, Pelé, Kazimierz Deyna

dane techniczne:

Victory (1981)-alE13.mkv
Format                      : Matroska
Format version              : Version 4 / Version 2
File size                   : 6.08 GiB
Duration                    : 1 h 51 min
Overall bit rate            : 7 772 kb/s
Movie name                  : Victory (1981)-alE13
Encoded date                : UTC 2017-01-13 04:24:33
Writing application         : mkvmerge v8.1.0 ('Psychedelic Postcard') 64bit
Writing library             : libebml v1.3.1 + libmatroska v1.4.2
Cover                       : Yes
Attachments                 : cover.jpg

Video
ID                          : 1
Format                      : AVC
Format/Info                 : Advanced Video Codec
Format profile              : High@L4.1
Format settings, CABAC      : Yes
Format settings, ReFrames   : 2 frames
Codec ID                    : V_MPEG4/ISO/AVC
Duration                    : 1 h 51 min
Bit rate                    : 6 874 kb/s
Width                       : 1 920 pixels
Height                      : 800 pixels
Display aspect ratio        : 2.40:1
Frame rate mode             : Constant
Frame rate                  : 25.000 FPS
Color space                 : YUV
Chroma subsampling          : 4:2:0
Bit depth                   : 8 bits
Scan type                   : Progressive
Bits/(Pixel*Frame)          : 0.179
Stream size                 : 5.37 GiB (88%)
Title                       : Victory (1981)-alE13
Writing library             : x264 core 142
Default                     : Yes
Forced                      : No
Color range                 : Limited
Color primaries             : BT.709
Transfer characteristics    : BT.709
Matrix coefficients         : BT.709

Audio #1
ID                          : 2
Format                      : AC-3
Format/Info                 : Audio Coding 3
Mode extension              : CM (complete main)
Format settings, Endianness : Big
Codec ID                    : A_AC3
Duration                    : 1 h 51 min
Bit rate mode               : Constant
Bit rate                    : 640 kb/s
Channel(s)                  : 2 channels
Channel positions           : Front: L R
Sampling rate               : 48.0 kHz
Frame rate                  : 31.250 FPS (1536 spf)
Bit depth                   : 16 bits
Compression mode            : Lossy
Stream size                 : 512 MiB (8%)
Title                       : Victory (1981)-alE13_AC3
Language                    : English
Default                     : No
Forced                      : No

Audio #2
ID                          : 3
Format                      : AC-3
Format/Info                 : Audio Coding 3
Mode extension              : CM (complete main)
Format settings, Endianness : Big
Codec ID                    : A_AC3
Duration                    : 1 h 51 min
Bit rate mode               : Constant
Bit rate                    : 256 kb/s
Channel(s)                  : 2 channels
Channel positions           : Front: L R
Sampling rate               : 48.0 kHz
Frame rate                  : 31.250 FPS (1536 spf)
Bit depth                   : 16 bits
Compression mode            : Lossy
Delay relative to video     : 7 s 200 ms
Stream size                 : 205 MiB (3%)
Title                       : Victory (1981)-alE13_AC3
Language                    : Polish
Default                     : Yes
Forced                      : No

Podobne torrenty
[RMVB] Ucieczka do Zwycięstwa - Victory *1981* [DVDRip.RMVB] [Lektor PL]
[DivX - XviD] Ucieczka do zwycięstwa - Victory *1981* [DVDRip.XviD] [Lektor PL]
[DivX - XviD] Ucieczka do zwycięstwa - Victory *1981* [DVDRip] [XviD] [Lektor PL]
[HDTV-HD] Ucieczka na Atenę-Escape to Athena (1979)[BRRip.1080p.x265-HEVC by alE13 AC3][Lektor i Napisy PL/Eng][Eng]
[HDTV-HD] Amerykański wilkołak w Londynie-An American Werewolf in London (1981)[BRRip 1080p x264 by alE13 AC3/DTS][Lektor i Napisy PL/Eng][Eng]
[HDTV-HD] Bugsy (1991)[WebRip 1080p x264 by alE13 AC3][Lektor i Napisy PL/Eng][Eng]
[HDTV-HD] Nevada Smith (1966)[WEBRip.1080p.x264 by alE13.AC3][Lektor i Napisy PL/Eng][Eng]
[HDTV-HD] Smoking-The Tuxedo (2002)[WEBRip 1080p x264 by alE13 AC3][Lektor i Napisy PL/Eng][Eng]
[HDTV-HD] Imperium-Empire (2002)[WEBRip 1080p x264 by alE13 AC3][Lektor i Napisy PL/Eng][Eng]
[HDTV-HD] Kapitan Ron-Captain Ron (1992)[WEBRip 1080p x264 by alE13 AC3][Lektor i Napisy PL/Eng][Eng]
Szczegóły torrenta
Trackerhttp://auratorrent.pl:8089/announce
Multitracker http://auratorrent.pl:8089/announce
http://pow7.com:80/announce
http://pow7.com/announce
http://tracker.tfile.me/announce
http://retracker.omsk.ru:2710/announce
http://mgtracker.org:2710/announce
udp://tracker.leechers-paradise.org:6969/announce
http://mgtracker.org:2710/announce
http://pow7.com:80/announce
http://pow7.com/announce
http://tracker.torrentyorg.pl/announce
udp://inferno.demonoid.ooo:3392/announce
udp://inferno.demonoid.pw:3393/announce
udp://tracker.coppersurfer.tk:6969/announce

Kategoria:Filmy » HDTV-HD
Dodane13/01/2017 05:01:46
Ostatnie Uaktualnienie24/10/2017 00:23:30
Pokaż/Ukryj pliki:
14 plików
NIKT JESZCZE NIE DODAŁ KOMENTARZA

DODAJ KOMENTARZ
Więcej Emoticon



Wstecz

Żaden z opisanych na stronie plików nie jest przetrzymywany na serwerze. Administrator strony immortaltorrent.pl nie może ponieść konsekwencji prawnych za to co użytkownicy zamieszczają lub piszą na stronie.
Nie możesz używać tego serwisu do rozpowszechniania lub ściągania materiałów do których nie masz odpowiednich praw lub licencji. Użytkownicy zobowiązani są do przestrzeganie tych zasad.
Rejestracja konta jest jednoznaczna z akceptacją zasad.

2017 © immortaltorrent.pl


Najlepsze strony Torrentowe