Torrentów: 137213      Ranga: Gość               Stwórz konto Odzyskiwanie hasła


Kategorie
Filmy
 ⇒ DivX - XviD
 ⇒ RMVB
 ⇒ DVD-R
 ⇒ TV + Seriale
 ⇒ HDTV-HD
 ⇒ VCD - SVCD
 ⇒ x 264
 ⇒  3D
Gry
 ⇒ Gry PC
 ⇒ Gry Konsole
 ⇒ xbox360
Muzyka
 ⇒ Muzyka
 ⇒ Teledyski/Koncerty
Książki - Komiksy
 ⇒ E-Booki + Audio
 ⇒ Komiksy
Inne
 ⇒ XXX
 ⇒ Dla Dzieci
 ⇒ Sport
 ⇒ Pozostałe - Różne
 ⇒ Manga - Anime
 ⇒ GSM - PDA
Aplikacje
 ⇒ Windows
 ⇒ Linux + Macintosh



Detale torrenta

Nevada Smith (1966)[BRRip.1080p.x264 by alE13.AC3][Lektor i Napisy PL/Eng][Eng]
Kondycja:
Dodane: 10/05/2017
Rozmiar: 8.09 GB
Uploader: alE13

seed(ów): 1
leecher(ów): 0
Pobrane: 0





Ocena: N/A




http://www.filmweb.pl/film/Nevada+Smith-1966-32206
http://www.imdb.com/title/tt0060748/

Plik zawiera Sample.

gatunek: Western
premiera: 10-06-1966
produkcja: USA
reżyseria: Henry Hathaway
scenariusz: John Michael Hayes
muzyka:         Alfred Newman
zdjęcia:        Lucien Ballard
czas:           2h 11mn

opis:

A naive half-Indian, half-white man evolves into a hardened killer as he tracks down his
parents' murderers.

Max jest synem Indianki i białego. Kiedy pewna banda zabija jego rodziców, a on sam
uchodzi z życiem, poprzysiega im zemstę. Tułając się po prerii spotyka Jonasa Corda,
rusznikarza. Zaprzyjaźniają się. Max wyjawia mu swoje plany, Cord, jako człowiek prawy,
próbuje go od nich odwieść, ale w końcu daje się przekonać i szkoli Maxa, by ten mógł
dokonać zemsty.

http://i.imgur.com/ZlLY45R.jpg
http://i.imgur.com/8uuhosV.jpg
http://i.imgur.com/Dbv6lnP.jpg
http://i.imgur.com/4V8xqZA.jpg

obsada:

Steve McQueen, Karl Malden, Brian Keith

dane techniczne:

Nevada Smith (1966)-alE13.mkv
Format                      : Matroska
Format version              : Version 4 / Version 2
File size                   : 8.02 GiB
Duration                    : 2h 11mn
Overall bit rate            : 8 752 Kbps
Movie name                  : Nevada Smith (1966)-alE13
Encoded date                : UTC 2016-11-06 04:06:15
Writing application         : mkvmerge v8.1.0 ('Psychedelic Postcard') 64bit
Writing library             : libebml v1.3.1 + libmatroska v1.4.2
Attachements                : cover.jpg
DURATION                    : 02:10:51.232000000
NUMBER_OF_FRAMES            : 245351
NUMBER_OF_BYTES             : 439668992
_STATISTICS_WRITING_APP     : mkvmerge v8.1.0 ('Psychedelic Postcard') 64bit
_STATISTICS_WRITING_DATE_UT : 2016-11-06 04:06:15
_STATISTICS_TAGS            : BPS DURATION NUMBER_OF_FRAMES NUMBER_OF_BYTES

Video
ID                          : 1
Format                      : AVC
Format/Info                 : Advanced Video Codec
Format profile              : Baseline@L4
Format settings, CABAC      : No
Format settings, ReFrames   : 2 frames
Codec ID                    : V_MPEG4/ISO/AVC
Duration                    : 2h 11mn
Bit rate                    : 8 000 Kbps
Width                       : 1 920 pixels
Height                      : 1 080 pixels
Display aspect ratio        : 16:9
Frame rate mode             : Constant
Frame rate                  : 23.976 fps
Color space                 : YUV
Chroma subsampling          : 4:2:0
Bit depth                   : 8 bits
Scan type                   : Progressive
Bits/(Pixel*Frame)          : 0.161
Stream size                 : 7.22 GiB (90%)
Writing library             : x264 core 142
Default                     : Yes
Forced                      : No
DURATION                    : 02:11:13.540000000
NUMBER_OF_FRAMES            : 188776
NUMBER_OF_BYTES             : 7920554833
_STATISTICS_WRITING_APP     : mkvmerge v8.1.0 ('Psychedelic Postcard') 64bit
_STATISTICS_WRITING_DATE_UT : 2016-11-06 04:06:15
_STATISTICS_TAGS            : BPS DURATION NUMBER_OF_FRAMES NUMBER_OF_BYTES

Audio #1
ID                          : 3
Format                      : AC-3
Format/Info                 : Audio Coding 3
Mode extension              : CM (complete main)
Format settings, Endianness : Big
Codec ID                    : A_AC3
Duration                    : 2h 11mn
Bit rate mode               : Constant
Bit rate                    : 256 Kbps
Channel(s)                  : 2 channels
Channel positions           : Front: L R
Sampling rate               : 44.1 KHz
Compression mode            : Lossy
Delay relative to video     : 229ms
Stream size                 : 240 MiB (3%)
Title                       : Nevada Smith (1966)-alE13
Language                    : Polish
Default                     : Yes
Forced                      : No

Audio #2
ID                          : 5
Format                      : AC-3
Format/Info                 : Audio Coding 3
Mode extension              : CM (complete main)
Format settings, Endianness : Big
Codec ID                    : A_AC3
Duration                    : 2h 11mn
Bit rate mode               : Constant
Bit rate                    : 448 Kbps
Channel(s)                  : 2 channels
Channel positions           : Front: L R
Sampling rate               : 48.0 KHz
Compression mode            : Lossy
Delay relative to video     : -21ms
Stream size                 : 420 MiB (5%)
Title                       : Nevada Smith (1966)-alE13
Language                    : English
Default                     : No
Forced                      : No

Text #1
ID                          : 2
Format                      : UTF-8
Codec ID                    : S_TEXT/UTF8
Codec ID/Info               : UTF-8 Plain Text
Title                       : Nevada Smith (1966)-alE13
Language                    : English
Default                     : No
Forced                      : No

Text #2
ID                          : 4
Format                      : UTF-8
Codec ID                    : S_TEXT/UTF8
Codec ID/Info               : UTF-8 Plain Text
Title                       : Nevada Smith (1966)-alE13
Language                    : Polish
Default                     : Yes
Forced                      : No

Menu
00:00:00.000                : en:The Murder Of Max Sand's Family
00:10:15.000                : en:Setting Out For Revenge
00:23:03.000                : en:Jonas Cord
00:28:42.000                : en:Studying Up
00:34:12.000                : en:Going Where The Money Is
00:40:22.000                : en:Killing Jesse Coe
00:47:45.000                : en:Neesa
00:52:15.000                : en:Looking For Names
00:55:46.000                : en:"The Word Is Apprehended"
01:08:13.024                : en:Enemies And Friends
01:20:48.024                : en:Dying In Sin
01:33:08.024                : en:Mean As Tom Fitch
01:41:14.024                : en:Father Zaccardi
01:48:53.024                : en:"Smith... Nevada Smith."
01:56:54.024                : en:Aiming To Kill
02:05:05.024                : en:"Finish Me!"
Podobne torrenty
[HDTV-HD] Nevada Smith (1966)[WEBRip.1080p.x264 by alE13.AC3][Lektor i Napisy PL/Eng][Eng]
[HDTV-HD] Obława-The Chase (1966)[BRRip 1080p x264 by alE13 AC3/DTS][Lektor i Napisy PL/Eng][Eng]
[HDTV-HD] Zawodowcy-Professionals (1966)[BRRip 1080p x264 by alE13 AC3/DTS][Lektor i Napisy PL/Eng][Eng]
[HDTV-HD] Wielka włóczęga-La Grande vadrouille (1966)[BRRip 1080p x264 by alE13 AC3][Lektor i Napisy PL/Eng][Fre]
[HDTV-HD] Milion lat przed naszą erą-One Million Years BC. (1966)[BRRip 1080p x264 by alE13 DTS/AC3][Napisy PL/Eng][Eng]
[HDTV-HD] Alvarez Kelly (1966)[BRRip 1080p x264 by alE13 AC3/DTS][Lektor PL][Eng]
[HDTV-HD] Błękitny Order-The Blue Max (1966)[BRRip 1080p by alE13 AC3/DTS][Lektor i Napisy PL/Eng][Eng]
[HDTV-HD] Miasto Aniołów-City of Angels (1998)-alE13[BRRip 1080p x264 by alE13 AC3/DTS][Lektor i Napisy PL/Eng][Eng]
[HDTV-HD] Barwy Nocy-Color of night (Director\'s Cut) (1994)-alE13[BRRip 1080p x264 by alE13 AC3][Lektor i Napisy PL/Eng][Eng]
[HDTV-HD] Szybcy i wściekli 8-The Fate of the Furious (2017)-alE13[BRRip 1080p x264 by alE13 AC3/DTS]Napisy PL/Eng][Eng]
Szczegóły torrenta
Trackerhttp://tracker.torrentyorg.pl/announce
Multitracker http://tracker.torrentyorg.pl/announce
udp://tracker.opentrackr.org:1337/announce
udp://tracker.leechers-paradise.org:6969/announce
udp://tracker.ilibr.org:80/announce
udp://tracker.coppersurfer.tk:6969/announce
udp://p4p.arenabg.ch:1337/announce
udp://inferno.demonoid.pw:3391/announce

Kategoria:Filmy » HDTV-HD
Dodane10/05/2017 19:05:59
Ostatnie Uaktualnienie10/05/2017 19:30:59
Pokaż/Ukryj pliki:
14 plików
NIKT JESZCZE NIE DODAŁ KOMENTARZA

DODAJ KOMENTARZ
Więcej Emoticon



Wstecz

Żaden z opisanych na stronie plików nie jest przetrzymywany na serwerze. Administrator strony immortaltorrent.pl nie może ponieść konsekwencji prawnych za to co użytkownicy zamieszczają lub piszą na stronie.
Nie możesz używać tego serwisu do rozpowszechniania lub ściągania materiałów do których nie masz odpowiednich praw lub licencji. Użytkownicy zobowiązani są do przestrzeganie tych zasad.
Rejestracja konta jest jednoznaczna z akceptacją zasad.

2017 © immortaltorrent.pl


Najlepsze strony Torrentowe