Torrentów: 142014      Ranga: Gosc               Stwórz konto Odzyskiwanie hasła


Kategorie
Filmy
 ⇒ DivX - XviD
 ⇒ RMVB
 ⇒ DVD-R
 ⇒ TV + Seriale
 ⇒ HDTV-HD
 ⇒ VCD - SVCD
 ⇒ x 264
 ⇒  3D
Gry
 ⇒ Gry PC
 ⇒ Gry Konsole
 ⇒ xbox360
Muzyka
 ⇒ Muzyka
 ⇒ Teledyski/Koncerty
Książki - Komiksy
 ⇒ E-Booki + Audio
 ⇒ Komiksy
Inne
 ⇒ XXX
 ⇒ Dla Dzieci
 ⇒ Sport
 ⇒ Pozostałe - Różne
 ⇒ Manga - Anime
 ⇒ GSM - PDA
Aplikacje
 ⇒ Windows
 ⇒ Linux + Macintosh



Detale torrenta

Duch - Poltergeist *1982* [mini-HD.720p.AAC.Custom.BluRay.x264-LEON 345] [Lektor PL]
Kondycja:
Dodane: 19/06/2014
Rozmiar: 2.64 GB
Uploader: blackangel

seed(ów): 1
leecher(ów): 50
Pobrane: 0





Ocena: N/A

Duch - Poltergeist *1982* PL 720p Custom Leon 345
================================================

produkcja: USA
gatunek: Horror
data premiery: 1982-06-04 (wiat)
reyseria: Tobe Hooper
scenariusz: Steven Spielberg, Michael Grais
zdjcia: Matthew F. Leonetti
muzyka: Jerry Goldsmith
czas trwania: 114
http://www.imdb.com/title/tt0084516/
http://www.filmweb.pl/film/Duch-1982-5228

Wielki przebj kasowy wyprodukowany przez Spielberga.Pewnego dnia Steve i Diana wraz z dwjk dzieci wprowadzaj si do wymarzonego domu. Jednak ju po kilku dniach od przeprowadzki zaczynaj dzia si dziwne rzeczy. W kuchni bez niczyjej pomocy przesuwaj si krzesa, drzewo w czasie burzy prbuje zje chopca, a maa dziewczynka zostaje wcignita przez telewizor. Przeraeni rodzice wzywaj parapsychologw, ktrzy stwierdzaj, e dom nawiedzany jest przez ducha. Z czasem okazuje si e zosta on wybudowany w samym centrum starego, indiaskiego cmentarzyska...

Powstay rwnie dwie kolejne czci, lecz caa seria cieszy si z saw filmu przekltego.Po realizacji zmaro kilku aktorw, w tym odtwrczyni roli dziewczynki 13 letnia Heather O'Rourke.

Heather O'Rourke, ktra graa w filmie Carol-Anne i Dominique Dunne, grajca nastoletni crk, spoczywaj na tym samym cmentarzu: Westwood Memorial Park w Los Angeles. Dunne zosta uduszona przez swojego chopaka w 1982, roku wydania filmu. Sze lat potem umara O'Rourke.

Obsada:

Craig T. Nelson ... Steve Freeling
JoBeth Williams ... Diane Freeling (as Jobeth Williams)
Beatrice Straight ... Dr. Lesh
Dominique Dunne ... Dana Freeling
Oliver Robins ... Robbie Freeling
Heather O'Rourke ... Carol Anne Freeling
Michael McManus ... Ben Tuthill
Virginia Kiser ... Mrs. Tuthill
Martin Casella ... Marty (as Marty Casella)

General

Format : MPEG-4
Format profile : Base Media
Codec ID : isom
File size : 2.63 GiB
Duration : 1h 54mn
Overall bit rate mode : Variable
Overall bit rate : 3 295 Kbps
Movie name : Poltergeist 1982 PL 720p Custom(Leon 345)
Encoded date : UTC 2014-06-15 20:39:42
Tagged date : UTC 2014-06-15 20:42:18

Video
ID : 1
Format : AVC
Format/Info : Advanced Video Codec
Format profile : High@L4.1
Format settings, CABAC : Yes
Format settings, ReFrames : 4 frames
Codec ID : avc1
Codec ID/Info : Advanced Video Coding
Duration : 1h 54mn
Bit rate : 3 100 Kbps
Maximum bit rate : 29.4 Mbps
Width : 1 280 pixels
Height : 532 pixels
Display aspect ratio : 2.40:1
Frame rate mode : Constant
Frame rate : 23.976 fps
Color space : YUV
Chroma subsampling : 4:2:0
Bit depth : 8 bits
Scan type : Progressive
Bits/(Pixel*Frame) : 0.190
Stream size : 2.47 GiB (94%)
Title : Rip by Leon 345
Writing library : x264 core 128 r2216
Language : English
Encoded date : UTC 2014-06-15 20:39:42
Tagged date : UTC 2014-06-15 20:40:16

Audio
ID : 2
Format : AAC
Format/Info : Advanced Audio Codec
Format profile : LC
Codec ID : 40
Duration : 1h 54mn
Bit rate mode : Variable
Bit rate : 204 Kbps
Maximum bit rate : 283 Kbps
Channel(s) : 6 channels
Channel positions : Front: L C R, Side: L R, LFE
Sampling rate : 48.0 KHz
Compression mode : Lossy
Stream size : 167 MiB (6%)
Title : AAC 5.1 Lektor PL Custom
Language : Polish
Encoded date : UTC 2014-06-15 20:40:11
Tagged date : UTC 2014-06-15 20:40:16

Source [thx]:
A/V- Duch - Poltergeist *1982* PL BDRemux 1080p Custom Leon 345
Lektor PL- Leon 345 Custom 5.1 [Bluray TrueHD 5.1 ENG + TV AC3 2.0 PL]
Podobne torrenty
[HDTV-HD] Duch - Poltergeist *1982* [1080p.BDRemux.VC-1.TrueHD 5.1.Custom-Leon 345] [Lektor i Napisy PL]
[x 264] Buntownik z wyboru - Good Will Hunting *1997* [mini-HD.720p.AAC.Custom.BluRay.x264-LEON 345] [Lektor PL]
[x 264] Buntownik z wyboru - Good Will Hunting *1997* [mini-HD.720p.AAC.Custom.BluRay.x264-LEON 345] [Lektor PL]
[x 264] Blow *2001* [mini-HD.1080p.AAC.Custom.BluRay.x264-LEON 345] [Lektor PL]
[DivX - XviD] Duch - Poltergeist (Duch - kltwa ciemnoci) (1982) [DVDRip.XviD] [Lektor PL]
[x 264] Rambo: Pierwsza krew - Rambo: First Blood *1982* [mini-HD.1080p.AAC.BluRay.x264-LEON 345] [Lektor PL]
[x 264] King Kong (Extended Edition) *2005*[720p.DTS 5.1.AC3.Custom.BluRay.x264-LEON 345] [Lektor i Napisy PL]
[x 264] Ostatni samuraj - The Last Samurai *2003*[mini-HD.720p.AAC.BluRay.x264-LEON 345] [Lektor PL]
[x 264] Terminator 2: Dzie sdu - Terminator 2: Judgment Day *1991* (Directors Cut)[720p.DTS 5.1.AC3.Custom.BluRay.x264-LEON 345] [Lektor i Napisy PL]
[DivX - XviD] Duch-Poltergeist *1982* [DvDRiP.XviD.AC3] [Lektor PL]
Szczegóły torrenta
Trackerhttp://tracker.torrenty.org:6969/announce
Multitracker http://tracker.torrenty.org:6969/announce
http://94.228.192.98/announce
http://newhorizons.twentyforty.me:2710/announce
http://exodus.desync.com:6969/announce
http://pimp4003-torrents.me:2710/announce.php
http://exodus.desync.com/announce
udp://9.rarbg.com:2710/announce

Kategoria:Filmy » x 264
Dodane19/06/2014 12:06:48
Ostatnie Uaktualnienie19/06/2014 12:39:48
Pokaż/Ukryj pliki:
3 plików
NIKT JESZCZE NIE DODAŁ KOMENTARZA

DODAJ KOMENTARZ
Więcej Emoticon



Wstecz

Żaden z opisanych na stronie plików nie jest przetrzymywany na serwerze. Administrator strony immortaltorrent.pl nie może ponieść konsekwencji prawnych za to co użytkownicy zamieszczają lub piszą na stronie.
Nie możesz używać tego serwisu do rozpowszechniania lub ściągania materiałów do których nie masz odpowiednich praw lub licencji. Użytkownicy zobowiązani są do przestrzeganie tych zasad.
Rejestracja konta jest jednoznaczna z akceptacją zasad.

2018 © immortaltorrent.pl


Najlepsze strony Torrentowe