Torrentów: 134355      Ranga: Gość               Stwórz konto Odzyskiwanie hasła


Kategorie
Filmy
 ⇒ DivX - XviD
 ⇒ RMVB
 ⇒ DVD-R
 ⇒ TV + Seriale
 ⇒ HDTV-HD
 ⇒ VCD - SVCD
 ⇒ x 264
 ⇒  3D
Gry
 ⇒ Gry PC
 ⇒ Gry Konsole
 ⇒ xbox360
Muzyka
 ⇒ Muzyka
 ⇒ Teledyski/Koncerty
Książki - Komiksy
 ⇒ E-Booki + Audio
 ⇒ Komiksy
Inne
 ⇒ XXX
 ⇒ Dla Dzieci
 ⇒ Sport
 ⇒ Pozostałe - Różne
 ⇒ Manga - Anime
 ⇒ GSM - PDA
Aplikacje
 ⇒ Windows
 ⇒ Linux + Macintosh



Detale torrenta

Zombie SS - Doed Snoe(2009)[BDRip.x264-Dual Audio AC3][Lektor i Napisy PLEngSwe][Nor]
Kondycja:
Dodane: 24/07/2014
Rozmiar: 3.83 GB
Uploader: JoannaC

seed(ów): 13
leecher(ów): 2
Pobrane: 152





Ocena: N/A

..::(Info)::..

gatunek: Horror, Czarna komedia
produkcja: Norwegia
premiera: 09-01-2009
reżyseria: Tommy Wirkola
scenariusz: Tommy Wirkola, Stig Frode Henriksen
muzyka: Christin Wibe
zdjęcia: Matthew Weston
czas: 01:31:30

..::(Opis)::..

A ski vacation turns horrific for a group of medical students, as they
find themselves confronted by an unimaginable menace: Nazi zombies.

Grupka studentów wyjeżdża na kilka dni w góry. Będą musieli się tam
zmierzyć z bandą nazistowskich zombie.

..::(Dane Techniczne)::..

obsada:

Jeppe Beck Laursen, Charlotte Frogner, Jenny Skavlan

dane techniczne:

Doed Snoe(2009)-alE13.mkv
Format                                   : Matroska
Format version                           : Version 4 / Version 2
File size                                : 3.82 GiB
Duration                                 : 1h 31mn
Overall bit rate                         : 5 984 Kbps
Movie name                               : Doed Snoe(2009)_Rip.-alE13
Encoded date                             : UTC 2014-07-16 10:43:24
Writing application                      : mkvmerge v7.0.0
Writing library                          : libebml v1.3.0 + libmatroska v1.4.1

Video
ID                                       : 1
Format                                   : AVC
Format/Info                              : Advanced Video Codec
Format profile                           : Baseline@L4.0
Format settings, CABAC                   : No
Format settings, ReFrames                : 1 frame
Format settings, GOP                     : M=1, N=12
Codec ID                                 : V_MPEG4/ISO/AVC
Duration                                 : 1h 31mn
Bit rate                                 : 4 969 Kbps
Width                                    : 1 920 pixels
Height                                   : 1 040 pixels
Display aspect ratio                     : 1.85:1
Frame rate mode                          : Constant
Frame rate                               : 24.000 fps
Color space                              : YUV
Chroma subsampling                       : 4:2:0
Bit depth                                : 8 bits
Scan type                                : Progressive
Bits/(Pixel*Frame)                       : 0.104
Stream size                              : 3.18 GiB (83%)
Title                                    : Doed Snoe(2009)_Rip.-alE13

Audio #1
ID                                       : 2
Format                                   : AC-3
Format/Info                              : Audio Coding 3
Mode extension                           : CM (complete main)
Format settings, Endianness              : Big
Codec ID                                 : A_AC3
Duration                                 : 1h 31mn
Bit rate mode                            : Constant
Bit rate                                 : 256 Kbps
Channel(s)                               : 2 channels
Channel positions                        : Front: L R
Sampling rate                            : 48.0 KHz
Bit depth                                : 16 bits
Compression mode                         : Lossy
Delay relative to video                  : 10s 350ms
Stream size                              : 168 MiB (4%)

Audio #2
ID                                       : 3
Format                                   : AC-3
Format/Info                              : Audio Coding 3
Mode extension                           : CM (complete main)
Format settings, Endianness              : Big
Codec ID                                 : A_AC3
Duration                                 : 1h 31mn
Bit rate mode                            : Constant
Bit rate                                 : 640 Kbps
Channel(s)                               : 6 channels
Channel positions                        : Front: L C R, Side: L R, LFE
Sampling rate                            : 48.0 KHz
Bit depth                                : 16 bits
Compression mode                         : Lossy
Stream size                              : 419 MiB (11%)
Title                                    : Doed Snoe(2009)-alE13
Language                                 : Norwegian

Text #1
ID                                       : 4
Format                                   : UTF-8
Codec ID                                 : S_TEXT/UTF8
Codec ID/Info                            : UTF-8 Plain Text
Title                                    : Doed Snoe(2009)-alE13
Language                                 : Polish

Text #2
ID                                       : 5
Format                                   : UTF-8
Codec ID                                 : S_TEXT/UTF8
Codec ID/Info                            : UTF-8 Plain Text
Title                                    : Doed Snoe(2009)-alE13
Language                                 : English

Text #3
ID                                       : 6
Format                                   : UTF-8
Codec ID                                 : S_TEXT/UTF8
Codec ID/Info                            : UTF-8 Plain Text
Title                                    : Doed Snoe(2009)-alE13
Language                                 : Swedish
Podobne torrenty
[x 264] The Punisher (Unrated) *1989* [BDRip.x264.Dual Audio AC3][Lektor/Napisy PL][Eng]
[HDTV-HD] Kleszcze - Ticks (1993) [BDRip x264 Dual Audio DTS/AC3] [Lektor i Napisy PL]
[x 264] Wojna i Pokój-War and Peace (1956) [BDRip.x264.Dual Audio AC3][Lektor/Napisy PL][English]
[x 264] W Stronę Słońca-Sunshine(2007[BDRip.x264.Dual Audio AC3][Lektor/Napisy PL][English]
[x 264] Złamana strzała - Broken Arrow (1950)[BDRip.x264.Dual audio AC3/DTS][Lektor/Napisy PL/Eng][Eng]
[x 264] Każdy sposób jest dobry - Every Which Way But Loose(1978)[BDRip.x264.Dual Audio AC3][Lektor i Napisy Pl][Eng]
[x 264] Protektor - The Protector (1985) [BDRip.x264.DTS.Dual Audio] [Napisy PL]
[x 264] Książę Persji:Piaski czasu - Prince of Persia:The Sands of Time (2010)[BDRip.x264 dual Audio AC3][Lektor Napisy PLEng][Eng]
[x 264] Morderstwo w Orient Expressie - Murder on the Orient Express (1974)[BDRip.x264.Dual Audio DTS/AC3][Lektor/Napisy PL][Eng]
[x 264] U-571(2000)[BDRip.x264.Dual Audio DTSAC3][Lektor PL][Eng]
Szczegóły torrenta
Trackerhttp://tracker.aletorrenty.pl:2710/announce
Multitracker http://tracker.aletorrenty.pl:2710/announce
http://94.228.192.98/announce
http://inferno.demonoid.ph:3389/announce
http://flashtorrents.org/announce.php
http://divxhunt.me/announce.php
http://www.areafiles.org/announce.php
http://p2pdl.com:2710/announce
http://exodus.desync.com:6969/announce
http://tracker.torrent-polska.eu:2710/announce
http://tracker.torrent-polska.info:2710/announce
udp://tracker.aletorrenty.pl:2710/announce
udp://fr33dom.h33tunblocked.co:3310/announce
udp://open.demonii.com:1337/announce
udp://tracker.istole.it:80/announce
udp://tracker.publicbt.com:80/announce
udp://tracker.openbittorrent.com:80/announce
udp://tracker.publichd.eu:80/announce
udp://tracker.glotorrents.com:6969/announce
udp://glotorrents.com:6969/announce

Kategoria:Filmy » x 264
Dodane24/07/2014 16:07:52
Ostatnie Uaktualnienie24/07/2014 16:39:52
Pokaż/Ukryj pliki:
7 plików
NIKT JESZCZE NIE DODAŁ KOMENTARZA

DODAJ KOMENTARZ
Więcej Emoticon



Wstecz

Żaden z opisanych na stronie plików nie jest przetrzymywany na serwerze. Administrator strony immortaltorrent.pl nie może ponieść konsekwencji prawnych za to co użytkownicy zamieszczają lub piszą na stronie.
Nie możesz używać tego serwisu do rozpowszechniania lub ściągania materiałów do których nie masz odpowiednich praw lub licencji. Użytkownicy zobowiązani są do przestrzeganie tych zasad.
Rejestracja konta jest jednoznaczna z akceptacją zasad.

2017 © immortaltorrent.pl


Najlepsze strony Torrentowe