Torrentów: 137128      Ranga: Gość               Stwórz konto Odzyskiwanie hasła


Kategorie
Filmy
 ⇒ DivX - XviD
 ⇒ RMVB
 ⇒ DVD-R
 ⇒ TV + Seriale
 ⇒ HDTV-HD
 ⇒ VCD - SVCD
 ⇒ x 264
 ⇒  3D
Gry
 ⇒ Gry PC
 ⇒ Gry Konsole
 ⇒ xbox360
Muzyka
 ⇒ Muzyka
 ⇒ Teledyski/Koncerty
Książki - Komiksy
 ⇒ E-Booki + Audio
 ⇒ Komiksy
Inne
 ⇒ XXX
 ⇒ Dla Dzieci
 ⇒ Sport
 ⇒ Pozostałe - Różne
 ⇒ Manga - Anime
 ⇒ GSM - PDA
Aplikacje
 ⇒ Windows
 ⇒ Linux + Macintosh



Detale torrenta

Cyborg (1989)[BRRip 1080p x264 by alE13 AC3/DTS][Lektor i Napisy PL/Eng][Eng]
Kondycja:
Dodane: 09/10/2017
Rozmiar: 8.42 GB
Uploader: alE13

seed(ów): 1
leecher(ów): 0
Pobrane: 0





Ocena: N/A

[img]https://i.imgur.com/JbpR80v.jpg[/img]

http://www.imdb.com/title/tt0097138/
http://www.filmweb.pl/film/Cyborg-1989-4765

Plik zawiera Sample.

reżyseria: Albert Pyun
scenariusz: Albert Pyun
gatunek: Akcja,Sci-Fi
produkcja: USA
premiera: 07-04-1989
muzyka:         Kevin Bassinson
zdjęcia:        Philip Alan Waters
czas:           1h 26min

opis:

A martial artist hunts a killer in a plague-infested urban dump of the future.

Gibson Rickenbacker (Jean-Claude Van Damme) zarabia na życie wyprowadzaniem ze zgliszczy
miasta pozostałych przy życiu ludzi po Apokalipsie. Kiedyś miał dom, rodzinę, dzieci.
Wszyscy zginęli z rąk zwyrodnialców, sprawujących teraz władzę nad zdegenerowaną Ameryką.
Wokół szaleje zaraza, ostateczna zagłada jest kwestią dni. W desperackim odruchu Gibson
podejmuje się trudnego zadania. Ma eskortować do Atlanty piękną nieznajomą, ściganą przez
hordy przeciwników. Dziewczyna jest cyborgiem, który posiada zbawcze dla ludzkości dane.

https://i.imgur.com/C55qRE8.jpg
https://i.imgur.com/qQQr8PN.jpg
https://i.imgur.com/LglpFZj.jpg
https://i.imgur.com/gVGAtOX.jpg

obsada:

Jean-Claude Van Damme, Deborah Richter, Vincent Klyn

dane techniczne:

Cyborg (1989)-alE13.mkv
Format                      : Matroska
Format version              : Version 4 / Version 2
File size                   : 8.38 GiB
Duration                    : 1 h 26 min
Overall bit rate            : 13.9 Mb/s
Movie name                  : Cyborg (1989)-alE13
Encoded date                : UTC 2017-10-08 13:30:54
Writing application         : mkvmerge v8.1.0 ('Psychedelic Postcard') 64bit
Writing library             : libebml v1.3.1 + libmatroska v1.4.2
Cover                       : Yes
Attachments                 : Cover.jpg

Video
ID                          : 1
Format                      : AVC
Format/Info                 : Advanced Video Codec
Format profile              : High@L4.1
Format settings, CABAC      : Yes
Format settings, RefFrames  : 2 frames
Codec ID                    : V_MPEG4/ISO/AVC
Duration                    : 1 h 26 min
Bit rate                    : 12.5 Mb/s
Width                       : 1 904 pixels
Height                      : 1 024 pixels
Display aspect ratio        : 1.85:1
Frame rate mode             : Constant
Frame rate                  : 23.976 (24000/1001) FPS
Color space                 : YUV
Chroma subsampling          : 4:2:0
Bit depth                   : 8 bits
Scan type                   : Progressive
Bits/(Pixel*Frame)          : 0.267
Stream size                 : 7.53 GiB (90%)
Title                       : Cyborg (1989)-alE13
Writing library             : x264 core 142
Default                     : Yes
Forced                      : No
Color range                 : Limited
Color primaries             : BT.709
Transfer characteristics    : BT.709
Matrix coefficients         : BT.709

Audio #1
ID                          : 2
Format                      : AC-3
Format/Info                 : Audio Coding 3
Format settings, Endianness : Big
Codec ID                    : A_AC3
Duration                    : 1 h 26 min
Bit rate mode               : Constant
Bit rate                    : 384 kb/s
Channel(s)                  : 2 channels
Channel positions           : Front: L R
Sampling rate               : 48.0 kHz
Frame rate                  : 31.250 FPS (1536 SPF)
Bit depth                   : 16 bits
Compression mode            : Lossy
Stream size                 : 237 MiB (3%)
Title                       : Cyborg (1989)-alE13_AC3
Language                    : English
Service kind                : Complete Main
Default                     : No
Forced                      : No

Audio #2
ID                          : 3
Format                      : AC-3
Format/Info                 : Audio Coding 3
Format settings, Endianness : Big
Codec ID                    : A_AC3
Duration                    : 1 h 26 min
Bit rate mode               : Constant
Bit rate                    : 256 kb/s
Channel(s)                  : 2 channels
Channel positions           : Front: L R
Sampling rate               : 48.0 kHz
Frame rate                  : 31.250 FPS (1536 SPF)
Bit depth                   : 16 bits
Compression mode            : Lossy
Delay relative to video     : 24 ms
Stream size                 : 158 MiB (2%)
Title                       : Cyborg (1989)-alE13_AC3
Language                    : Polish
Service kind                : Complete Main
Default                     : Yes
Forced                      : No

Audio #3
ID                          : 6
Format                      : DTS
Format/Info                 : Digital Theater Systems
Mode                        : 16
Format settings, Endianness : Big
Codec ID                    : A_DTS
Duration                    : 1 h 26 min
Bit rate mode               : Constant
Bit rate                    : 768 kb/s
Channel(s)                  : 2 channels
Channel positions           : Front: L R
Sampling rate               : 48.0 kHz
Frame rate                  : 93.750 FPS (512 SPF)
Bit depth                   : 24 bits
Compression mode            : Lossy
Stream size                 : 475 MiB (6%)
Title                       : Cyborg (1989)-alE13_DTS
Language                    : English
Default                     : No
Forced                      : No

Text #1
ID                          : 4
Format                      : UTF-8
Codec ID                    : S_TEXT/UTF8
Codec ID/Info               : UTF-8 Plain Text
Duration                    : 1 h 21 min
Bit rate                    : 13 b/s
Count of elements           : 282
Stream size                 : 8.25 KiB (0%)
Title                       : Cyborg (1989)-alE13
Language                    : Polish
Default                     : No
Forced                      : No

Text #2
ID                          : 5
Format                      : UTF-8
Codec ID                    : S_TEXT/UTF8
Codec ID/Info               : UTF-8 Plain Text
Duration                    : 1 h 25 min
Bit rate                    : 12 b/s
Count of elements           : 326
Stream size                 : 8.17 KiB (0%)
Title                       : Cyborg (1989)-alE13
Language                    : English
Default                     : No
Forced                      : No

Menu
00:00:00.000                : en:Chapter 01
00:00:25.191                : en:Chapter 02
00:04:14.087                : en:Chapter 03
00:05:24.699                : en:Chapter 04
00:10:31.881                : en:Chapter 05
00:16:20.479                : en:Chapter 06
00:23:38.166                : en:Chapter 07
00:28:52.814                : en:Chapter 08
00:32:34.077                : en:Chapter 09
00:36:01.075                : en:Chapter 10
00:40:01.482                : en:Chapter 11
00:46:34.917                : en:Chapter 12
00:49:52.364                : en:Chapter 13
00:55:11.725                : en:Chapter 14
00:56:38.103                : en:Chapter 15
00:59:36.614                : en:Chapter 16
01:05:58.037                : en:Chapter 17
01:09:25.035                : en:Chapter 18
01:12:41.565                : en:Chapter 19
01:19:29.723                : en:Chapter 20
01:22:11.801                : en:Chapter 21
Podobne torrenty
[HDTV-HD] Młoda czarownica-Teen Witch (1989)[BRRip 1080p x264 by alE13 AC3/FLAC][Lektor i Napisy PL/Eng][Eng]
[HDTV-HD] Miasto Aniołów-City of Angels (1998)-alE13[BRRip 1080p x264 by alE13 AC3/DTS][Lektor i Napisy PL/Eng][Eng]
[HDTV-HD] Barwy Nocy-Color of night (Director\'s Cut) (1994)-alE13[BRRip 1080p x264 by alE13 AC3][Lektor i Napisy PL/Eng][Eng]
[x 264] Cyborg *1989* [480p] [BRRip] [x264.AC3-Shadow] [Lektor PL]
[HDTV-HD] Szybcy i wściekli 8-The Fate of the Furious (2017)-alE13[BRRip 1080p x264 by alE13 AC3/DTS]Napisy PL/Eng][Eng]
[HDTV-HD] Coś-The Thing (1982)[BRRip 1080p x264 by alE13 AC3][Lektor i Napisy PL/Eng][Eng]
[HDTV-HD] Gladiator(2000)[BRRip 1080p x264 by alE13 AC3][Lektor i Napisy PL/Eng][Eng]
[HDTV-HD] Centurion (2010)[BRRip 1080p x264 by alE13 DTS/AC3][Lektor i Napisy PL/Eng][Eng]
[HDTV-HD] Bez wyjścia-No Way Out (1987)[BRRip 1080p x264 by alE13 AC3][Lektor i Napisy PL/Eng][Eng]
[HDTV-HD] Equilibrium (2002)[BRRip 1080p x264 by alE13 AC3][Lektor i Napisy PL/Eng][Eng]
Szczegóły torrenta
Trackerhttp://tracker.devil-torrents.pl/announce
Multitracker http://tracker.devil-torrents.pl/announce
http://tracker.torrentyorg.pl/announce
udp://tracker.opentrackr.org:1337/announce
udp://tracker.leechers-paradise.org:6969/announce
udp://tracker.ilibr.org:80/announce
udp://tracker.coppersurfer.tk:6969/announce
udp://p4p.arenabg.ch:1337/announce
udp://inferno.demonoid.pw:3391/announce

Kategoria:Filmy » HDTV-HD
Dodane09/10/2017 04:10:05
Ostatnie Uaktualnienie09/10/2017 04:37:05
Pokaż/Ukryj pliki:
15 plików
NIKT JESZCZE NIE DODAŁ KOMENTARZA

DODAJ KOMENTARZ
Więcej Emoticon



Wstecz

Żaden z opisanych na stronie plików nie jest przetrzymywany na serwerze. Administrator strony immortaltorrent.pl nie może ponieść konsekwencji prawnych za to co użytkownicy zamieszczają lub piszą na stronie.
Nie możesz używać tego serwisu do rozpowszechniania lub ściągania materiałów do których nie masz odpowiednich praw lub licencji. Użytkownicy zobowiązani są do przestrzeganie tych zasad.
Rejestracja konta jest jednoznaczna z akceptacją zasad.

2017 © immortaltorrent.pl


Najlepsze strony Torrentowe