Torrentów: 134343      Ranga: Gość               Stwórz konto Odzyskiwanie hasła


Kategorie
Filmy
 ⇒ DivX - XviD
 ⇒ RMVB
 ⇒ DVD-R
 ⇒ TV + Seriale
 ⇒ HDTV-HD
 ⇒ VCD - SVCD
 ⇒ x 264
 ⇒  3D
Gry
 ⇒ Gry PC
 ⇒ Gry Konsole
 ⇒ xbox360
Muzyka
 ⇒ Muzyka
 ⇒ Teledyski/Koncerty
Książki - Komiksy
 ⇒ E-Booki + Audio
 ⇒ Komiksy
Inne
 ⇒ XXX
 ⇒ Dla Dzieci
 ⇒ Sport
 ⇒ Pozostałe - Różne
 ⇒ Manga - Anime
 ⇒ GSM - PDA
Aplikacje
 ⇒ Windows
 ⇒ Linux + Macintosh



Detale torrenta

Człowiek z Dzikiego Zachodu-Man of the West (1958)[BRRip 1080p x264 by alE13 AC3/DTS][Lektor i Napisy PL][Eng]
Kondycja:
Dodane: 08/11/2016
Rozmiar: 7.85 GB
Uploader: alE13

seed(ów): 1
leecher(ów): 3
Pobrane: 0





Ocena: N/A



http://www.filmweb.pl/film/Cz%C5%82owiek+z+Dzikiego+Zachodu-1958-31852
http://www.imdb.com/title/tt0051899/

reżyseria:   Anthony Mann
scenariusz:  Reginald Rose
premiera:    1958-10-01
produkcja:   USA
gatunek:     Western, Romans
muzyka:      Leigh Harline
zdjęcia:     Ernest Haller
czas:        1h 39mn

opis:

A reformed outlaw becomes stranded after an aborted train robbery with two other
passengers and is forced to rejoin his old outlaw band.

Pociąg którym jechał Link Jones, spokojny farmer, zostaje napadnięty, a on sam wraz
z pewną tancerką i hazardzistą pozostawieni zostają w polu z daleka od domu. Jones
postanawia poszukać schronienia wśród wyjętych z pod prawa. Oni jednak, rządają aby
pomógł im w ostanim napadzie na bank.

obsada:

Gary Cooper, Julie London, Lee J. Cobb

dane techniczne:

Man of the West (1958)-alE13.mkv
Format                      : Matroska
Format version              : Version 4 / Version 2
File size                   : 7.79 GiB
Duration                    : 1h 39mn
Overall bit rate mode       : Variable
Overall bit rate            : 11.2 Mbps
Movie name                  : Man of the West (1958)-alE13
Encoded date                : UTC 2016-11-07 21:13:15
Writing application         : mkvmerge v8.1.0 ('Psychedelic Postcard') 64bit
Writing library             : libebml v1.3.1 + libmatroska v1.4.2
Attachements                : cover.jpg
DURATION                    : 01:36:21.699000000
NUMBER_OF_FRAMES            : 755
NUMBER_OF_BYTES             : 24331
_STATISTICS_WRITING_APP     : mkvmerge v8.1.0 ('Psychedelic Postcard') 64bit
_STATISTICS_WRITING_DATE_UT : 2016-11-07 21:13:15
_STATISTICS_TAGS            : BPS DURATION NUMBER_OF_FRAMES NUMBER_OF_BYTES

Video
ID                          : 1
Format                      : AVC
Format/Info                 : Advanced Video Codec
Format profile              : High@L4
Format settings, CABAC      : Yes
Format settings, ReFrames   : 3 frames
Codec ID                    : V_MPEG4/ISO/AVC
Duration                    : 1h 39mn
Bit rate mode               : Variable
Bit rate                    : 9 989 Kbps
Maximum bit rate            : 20.0 Mbps
Width                       : 1 912 pixels
Height                      : 816 pixels
Display aspect ratio        : 2.35:1
Frame rate mode             : Constant
Frame rate                  : 23.976 fps
Standard                    : PAL
Color space                 : YUV
Chroma subsampling          : 4:2:0
Bit depth                   : 8 bits
Scan type                   : Progressive
Bits/(Pixel*Frame)          : 0.267
Stream size                 : 6.93 GiB (89%)
Title                       : Man of the West (1958)-alE13
Default                     : Yes
Forced                      : No
Color range                 : Limited
Color primaries             : BT.709
Transfer characteristics    : BT.709
Matrix coefficients         : BT.709

Audio #1
ID                          : 2
Format                      : AC-3
Format/Info                 : Audio Coding 3
Mode extension              : CM (complete main)
Format settings, Endianness : Big
Codec ID                    : A_AC3
Duration                    : 1h 39mn
Bit rate mode               : Constant
Bit rate                    : 256 Kbps
Channel(s)                  : 2 channels
Channel positions           : Front: L R
Sampling rate               : 48.0 KHz
Compression mode            : Lossy
Delay relative to video     : 11s 100ms
Stream size                 : 182 MiB (2%)
Title                       : Man of the West (1958)-alE13
Language                    : Polish
Default                     : Yes
Forced                      : No

Audio #2
ID                          : 3
Format                      : DTS
Format/Info                 : Digital Theater Systems
Mode                        : 16
Format settings, Endianness : Big
Codec ID                    : A_DTS
Duration                    : 1h 39mn
Bit rate mode               : Constant
Bit rate                    : 768 Kbps
Channel(s)                  : 2 channels
Channel positions           : Front: L R
Sampling rate               : 48.0 KHz
Bit depth                   : 16 bits
Compression mode            : Lossy
Stream size                 : 545 MiB (7%)
Title                       : Man of the West (1958)-alE13_Original
Language                    : English
Default                     : No
Forced                      : No

Text
ID                          : 4
Format                      : UTF-8
Codec ID                    : S_TEXT/UTF8
Codec ID/Info               : UTF-8 Plain Text
Title                       : Man of the West (1958)-alE13
Language                    : Polish
Default                     : Yes
Forced                      : No
Podobne torrenty
[RMVB] Człowiek z dzikiego zachodu - Man of the West *1958* [DVDRip.RMVB] [Lektor PL]
[DVD-R] Człowiek z dzikiego zachodu - Man of the West (1958) DVD5 [Ita/Eng/Fra/Esp/Deu] [MultiSub]
[HDTV-HD] Siódma podróż Sindbada-The 7th Voyage of Sinbad (1958)[BDRip 1080p by alE13 AC3/DTS][Lektor i Napisy PL/Eng][Eng]
[HDTV-HD] Coś-The Thing (1982)[BRRip 1080p x264 by alE13 AC3][Lektor i Napisy PL/Eng][Eng]
[HDTV-HD] Gladiator(2000)[BRRip 1080p x264 by alE13 AC3][Lektor i Napisy PL/Eng][Eng]
[HDTV-HD] Centurion (2010)[BRRip 1080p x264 by alE13 DTS/AC3][Lektor i Napisy PL/Eng][Eng]
[HDTV-HD] Bez wyjścia-No Way Out (1987)[BRRip 1080p x264 by alE13 AC3][Lektor i Napisy PL/Eng][Eng]
[HDTV-HD] Equilibrium (2002)[BRRip 1080p x264 by alE13 AC3][Lektor i Napisy PL/Eng][Eng]
[HDTV-HD] 100 Karabinów-100 Rifles (1969) [BRRip 1080p x264 by alE13 AAC/DTS][Lektor i Napisy PL/Eng][Eng]
[HDTV-HD] Kleopatra-Cleopatra (1963)[BRRip 1080p x264 by alE13 AC3/DTS][Lektor i Napisy PL/Eng][Eng]
Szczegóły torrenta
Trackerhttp://tracker.torrentyorg.pl/announce
Multitracker http://tracker.torrentyorg.pl/announce
http://mgtracker.org:2710/announce
http://pow7.com:80/announce
http://pow7.com/announce
udp://tracker.leechers-paradise.org:6969/announce
udp://tracker.coppersurfer.tk:6969/announce
udp://tracker.opentrackr.org:1337/announce
udp://tracker.coppersurfer.tk:6969/announce
udp://tracker.leechers-paradise.org:6969/announce
udp://eddie4.nl:6969/announce
udp://tracker.coppersurfer.tk:6969/announce
udp://p4p.arenabg.com:1337/announce
udp://p4p.arenabg.ch:1337/announce
udp://tracker.internetwarriors.net:1337/announce
udp://tracker.openbittorrent.com:80/announce
udp://tracker.piratepublic.com:1337/announce
udp://tracker.opentrackr.org:1337/announce
udp://explodie.org:6969/announce
udp://p4p.arenabg.ch:1337/announce
udp://inferno.demonoid.ooo:3392/announce
udp://inferno.demonoid.pw:3393/announce
udp://tracker.coppersurfer.tk:6969/announce
udp://zer0day.to:1337/announce
udp://tracker.ilibr.org:6969/announce
udp://tracker.leechers-paradise.org:6969/announce
udp://eddie4.nl:6969/announce
udp://tracker.ilibr.org:80/announce

Kategoria:Filmy » HDTV-HD
Dodane08/11/2016 06:11:46
Ostatnie Uaktualnienie08/11/2016 06:44:46
Pokaż/Ukryj pliki:
13 plików
NIKT JESZCZE NIE DODAŁ KOMENTARZA

DODAJ KOMENTARZ
Więcej Emoticon



Wstecz

Żaden z opisanych na stronie plików nie jest przetrzymywany na serwerze. Administrator strony immortaltorrent.pl nie może ponieść konsekwencji prawnych za to co użytkownicy zamieszczają lub piszą na stronie.
Nie możesz używać tego serwisu do rozpowszechniania lub ściągania materiałów do których nie masz odpowiednich praw lub licencji. Użytkownicy zobowiązani są do przestrzeganie tych zasad.
Rejestracja konta jest jednoznaczna z akceptacją zasad.

2017 © immortaltorrent.pl


Najlepsze strony Torrentowe